<?xml version="1.0" standalone="no"?>
<!DOCTYPE svg PUBLIC "-//W3C//DTD SVG 1.1//EN" "http://www.w3.org/Graphics/SVG/1.1/DTD/svg11.dtd" >
<svg xmlns="http://www.w3.org/2000/svg" xmlns:xlink="http://www.w3.org/1999/xlink" version="1.1">
<metadata>
Created by FontForge 20201107 at Tue Apr 19 21:20:05 2022
 By Unknown
Harbor Bickmore 2022
</metadata>
<defs>
<font id="Brulia-veriable" horiz-adv-x="550" >
  <font-face 
    font-family="Brulia veriable"
    font-weight="400"
    font-stretch="normal"
    units-per-em="1000"
    panose-1="0 0 0 0 0 0 0 0 0 0"
    ascent="800"
    descent="-200"
    x-height="550"
    cap-height="800"
    bbox="-284 -225 1118 1108"
    underline-thickness="50"
    underline-position="-125"
    unicode-range="U+0020-FB02"
  />
<missing-glyph horiz-adv-x="500" 
d="M410 -200h-317v1000h317v-1000zM167 118v-113h166v113h-166zM300 38h-100v47h100v-47zM233 291v-56h34v23h33v-47h-100v80h-33v-113h166v113h-100zM300 413v-66h-133v-34h166v100h-33zM167 473v-33h66v-37h-66v-33h100v70h66v33h-166zM233 534h-33v36h33v-36zM167 604
v-104h166v34h-66v70h-100zM168 733v-33h65v-37h-66v-33h166v33h-66v37h66v33h-165zM167 -18v-33h70l-70 -47v-33h166v33h-102l70 47h32v33h-166z" />
    <glyph glyph-name="fi" unicode="fi" horiz-adv-x="639" 
d="M192 590v-590h-100v590h100zM226.5 676q34.5 34 87.5 34h95v90h-95q-64 0 -114.5 -27t-79 -74.5t-28.5 -108.5h100q0 52 34.5 86zM403 550v-90h-383v90h383zM479 800h100v-120h-100v120zM479 550h100v-550h-100v550z" />
    <glyph glyph-name="fl" unicode="fl" horiz-adv-x="639" 
d="M192 590v-590h-100v590h100zM226.5 676q34.5 34 87.5 34h95v90h-95q-64 0 -114.5 -27t-79 -74.5t-28.5 -108.5h100q0 52 34.5 86zM403 550v-90h-383v90h383zM479 800h100v-800h-100v800z" />
    <glyph glyph-name=".notdef" horiz-adv-x="500" 
d="M410 -200h-317v1000h317v-1000zM167 118v-113h166v113h-166zM300 38h-100v47h100v-47zM233 291v-56h34v23h33v-47h-100v80h-33v-113h166v113h-100zM300 413v-66h-133v-34h166v100h-33zM167 473v-33h66v-37h-66v-33h100v70h66v33h-166zM233 534h-33v36h33v-36zM167 604
v-104h166v34h-66v70h-100zM168 733v-33h65v-37h-66v-33h166v33h-66v37h66v33h-165zM167 -18v-33h70l-70 -47v-33h166v33h-102l70 47h32v33h-166z" />
    <glyph glyph-name="space" unicode=" " horiz-adv-x="200" 
 />
    <glyph glyph-name="A" unicode="A" horiz-adv-x="720" 
d="M307 800h106l302 -800h-105l-86 227h-328l-86 -227h-105zM490 319l-93 245q-11 29 -14 55t-3 66h-40q0 -40 -3 -66t-14 -55l-93 -245h260z" />
    <glyph glyph-name="Aacute" unicode="&#xc1;" horiz-adv-x="720" 
d="M307 800h106l302 -800h-105l-86 227h-328l-86 -227h-105zM490 319l-93 245q-11 29 -14 55t-3 66h-40q0 -40 -3 -66t-14 -55l-93 -245h260zM482 1066l-72 42l-72 -155l46 -27z" />
    <glyph glyph-name="Acircumflex" unicode="&#xc2;" horiz-adv-x="720" 
d="M307 800h106l302 -800h-105l-86 227h-328l-86 -227h-105zM490 319l-93 245q-11 29 -14 55t-3 66h-40q0 -40 -3 -66t-14 -55l-93 -245h260zM309 1050h102l131 -147h-102l-80 95l-80 -95h-102z" />
    <glyph glyph-name="Adieresis" unicode="&#xc4;" horiz-adv-x="720" 
d="M307 800h106l302 -800h-105l-86 227h-328l-86 -227h-105zM490 319l-93 245q-11 29 -14 55t-3 66h-40q0 -40 -3 -66t-14 -55l-93 -245h260zM243.33 1049.99h83.3252v-99.9902h-83.3252v99.9902zM393.33 1049.99h83.3252v-99.9902h-83.3252v99.9902z" />
    <glyph glyph-name="Agrave" unicode="&#xc0;" horiz-adv-x="720" 
d="M307 800h106l302 -800h-105l-86 227h-328l-86 -227h-105zM490 319l-93 245q-11 29 -14 55t-3 66h-40q0 -40 -3 -66t-14 -55l-93 -245h260zM248 1066l72 42l72 -155l-46 -27z" />
    <glyph glyph-name="Aring" unicode="&#xc5;" horiz-adv-x="720" 
d="M307 800h106l302 -800h-105l-86 227h-328l-86 -227h-105zM490 319l-93 245q-11 29 -14 55t-3 66h-40q0 -40 -3 -66t-14 -55l-93 -245h260zM294 925.5q-26 24.5 -26 62.5t26 62.5t66 24.5t66 -24.5t26 -62.5t-26 -62.5t-66 -24.5t-66 24.5zM381.5 966.5q8.5 8.5 8.5 21.5
t-8.5 21.5t-21.5 8.5t-21.5 -8.5t-8.5 -21.5t8.5 -21.5t21.5 -8.5t21.5 8.5z" />
    <glyph glyph-name="Atilde" unicode="&#xc3;" horiz-adv-x="720" 
d="M307 800h106l302 -800h-105l-86 227h-328l-86 -227h-105zM490 319l-93 245q-11 29 -14 55t-3 66h-40q0 -40 -3 -66t-14 -55l-93 -245h260zM237 953.5q-26 24.5 -26 62.5v34h62v-34q0 -13 8.5 -21.5t21.5 -8.5t22.5 7.5t20.5 22.5q14 20 29 31t41 11q40 0 66 -24.5
t26 -62.5v-34h-62v34q0 13 -8.5 21.5t-21.5 8.5t-22.5 -7.5t-23.5 -23.5q-16 -20 -30.5 -30.5t-36.5 -10.5q-40 0 -66 24.5z" />
    <glyph glyph-name="AE" unicode="&#xc6;" horiz-adv-x="910" 
d="M347 800h73v-115h-48v-7q0 -39 -3 -63t-14 -51l-107 -245h242v-92h-276l-104 -227h-105zM462 90h408v-90h-408v90zM420 800h105v-800h-105v800zM462 454h408v-90h-408v90zM462 800h408v-90h-408v90z" />
    <glyph glyph-name="B" unicode="B" horiz-adv-x="680" 
d="M60 800h335q110 0 177.5 -53.5t67.5 -150.5q0 -64 -31 -116.5t-108 -52.5v-38q86 0 122.5 -53.5t36.5 -124.5q0 -101 -67.5 -156t-177.5 -55h-355v800zM515 130q39 37 39 95t-38.5 95t-100.5 37h-250v-264h250q61 0 100 37zM495 486q39 36 39 93q0 56 -39 92t-100 36
h-230v-257h230q61 0 100 36z" />
    <glyph glyph-name="C" unicode="C" horiz-adv-x="693" 
d="M564.5 69q-76.5 -79 -199.5 -79q-99 0 -175.5 52t-118 145.5t-41.5 212.5t41.5 212.5t118 145.5t175.5 52q123 0 200 -78.5t98 -215.5h-108q-17 96 -64 148.5t-126 52.5q-69 0 -121 -40t-80 -112t-28 -165t28 -165t80 -112t121 -40q152 0 190 201h108
q-22 -136 -98.5 -215z" />
    <glyph glyph-name="Ccedilla" unicode="&#xc7;" horiz-adv-x="693" 
d="M564.5 69q-76.5 -79 -199.5 -79q-99 0 -175.5 52t-118 145.5t-41.5 212.5t41.5 212.5t118 145.5t175.5 52q123 0 200 -78.5t98 -215.5h-108q-17 96 -64 148.5t-126 52.5q-69 0 -121 -40t-80 -112t-28 -165t28 -165t80 -112t121 -40q152 0 190 201h108
q-22 -136 -98.5 -215zM337.5 -159.5q28.5 8.5 28.5 21.5t-28.5 21.5t-71.5 8.5l17 57q62 0 103.5 -25t41.5 -62t-46 -62t-116 -25v57q43 0 71.5 8.5zM283 -51l18 58h39l-18 -78z" />
    <glyph glyph-name="D" unicode="D" horiz-adv-x="690" 
d="M139 800h196q94 0 168 -50t115.5 -141t41.5 -209t-41.5 -209t-115.5 -141t-168 -50h-196v93h196q64 0 113.5 38t77.5 107.5t28 161.5t-28 161.5t-77.5 107.5t-113.5 38h-196v93zM60 800h105v-800h-105v800z" />
    <glyph glyph-name="E" unicode="E" horiz-adv-x="600" 
d="M60 800h105v-800h-105v800zM560 90v-90h-458v90h458zM560 800v-90h-458v90h458zM560 454v-90h-458v90h458z" />
    <glyph glyph-name="Eacute" unicode="&#xc9;" horiz-adv-x="600" 
d="M60 800h105v-800h-105v800zM560 90v-90h-458v90h458zM560 800v-90h-458v90h458zM560 454v-90h-458v90h458zM432 1066l-72 42l-72 -155l46 -27z" />
    <glyph glyph-name="Ecircumflex" unicode="&#xca;" horiz-adv-x="600" 
d="M60 800h105v-800h-105v800zM560 90v-90h-458v90h458zM560 800v-90h-458v90h458zM560 454v-90h-458v90h458zM259 1050h102l131 -147h-102l-80 95l-80 -95h-102z" />
    <glyph glyph-name="Edieresis" unicode="&#xcb;" horiz-adv-x="600" 
d="M60 800h105v-800h-105v800zM560 90v-90h-458v90h458zM560 800v-90h-458v90h458zM560 454v-90h-458v90h458zM193.33 1049.99h83.3252v-99.9902h-83.3252v99.9902zM343.33 1049.99h83.3252v-99.9902h-83.3252v99.9902z" />
    <glyph glyph-name="Egrave" unicode="&#xc8;" horiz-adv-x="600" 
d="M60 800h105v-800h-105v800zM560 90v-90h-458v90h458zM560 800v-90h-458v90h458zM560 454v-90h-458v90h458zM198 1066l72 42l72 -155l-46 -27z" />
    <glyph glyph-name="F" unicode="F" horiz-adv-x="580" 
d="M60 800h105v-800h-105v800zM560 800v-90h-458v90h458zM550 410v-90h-448v90h448z" />
    <glyph glyph-name="G" unicode="G" horiz-adv-x="719" 
d="M669 376v-376h-75l-14 126h-31q-27 -78 -85 -107t-128 -29q-151 0 -228.5 111.5t-77.5 298.5q0 119 41.5 212.5t118 145.5t175.5 52q123 0 200 -78.5t98 -215.5h-108q-17 96 -64 148.5t-126 52.5q-69 0 -121 -40t-80 -112t-28 -165t27 -165t77.5 -112t119.5 -40
q79 0 128 53t67 148h-279v92h393z" />
    <glyph glyph-name="H" unicode="H" horiz-adv-x="670" 
d="M505 800h105v-800h-105v800zM60 800h105v-800h-105v800zM127 456h426v-92h-426v92z" />
    <glyph glyph-name="I" unicode="I" horiz-adv-x="225" 
d="M60 800h105v-800h-105v800z" />
    <glyph glyph-name="Iacute" unicode="&#xcd;" horiz-adv-x="225" 
d="M60 800h105v-800h-105v800zM235 1066l-72 42l-72 -155l46 -27z" />
    <glyph glyph-name="Icircumflex" unicode="&#xce;" horiz-adv-x="225" 
d="M60 800h105v-800h-105v800zM62 1050h102l131 -147h-102l-80 95l-80 -95h-102z" />
    <glyph glyph-name="Idieresis" unicode="&#xcf;" horiz-adv-x="225" 
d="M60 800h105v-800h-105v800zM-3.66992 1049.99h83.3252v-99.9902h-83.3252v99.9902zM146.33 1049.99h83.3252v-99.9902h-83.3252v99.9902z" />
    <glyph glyph-name="Igrave" unicode="&#xcc;" horiz-adv-x="225" 
d="M60 800h105v-800h-105v800zM1 1066l72 42l72 -155l-46 -27z" />
    <glyph glyph-name="J" unicode="J" horiz-adv-x="519" 
d="M116.5 9q-50.5 25 -78.5 69.5t-28 101.5h105q0 -46 32.5 -74.5t84.5 -28.5q55 0 88.5 32t33.5 85h105q0 -61 -29.5 -108.5t-82 -74.5t-117.5 -27q-63 0 -113.5 25zM354 800h105v-606h-105v606z" />
    <glyph glyph-name="K" unicode="K" horiz-adv-x="590" 
d="M212 303q-7 30 -7 51h-40v112h40q0 22 7.5 52t28.5 54l202 228h137l-342 -390l352 -410h-137l-213 249q-21 24 -28 54zM60 800h105v-800h-105v800z" />
    <glyph glyph-name="L" unicode="L" horiz-adv-x="530" 
d="M60 800h105v-800h-105v800zM520 90v-90h-418v90h418z" />
    <glyph glyph-name="M" unicode="M" horiz-adv-x="910" 
d="M215 509q-5 28 -5 62v47h-46l-64 182h105l213 -564q11 -29 14 -55t3 -66h40q0 40 3 66t14 55l213 564h105l-65 -182h-46v-49q0 -34 -5 -62t-17 -60l-169 -447h-106l-170 449q-12 32 -17 60zM60 800h105v-800h-105v800zM745 0v800h105v-800h-105z" />
    <glyph glyph-name="N" unicode="N" horiz-adv-x="690" 
d="M165 800l280 -476q18 -32 26 -60t8 -64v-30h46v-170l-280 466q-19 31 -26.5 59.5t-7.5 64.5v40h-46v170zM60 800h105v-800h-105v800zM630 0h-105v800h105v-800z" />
    <glyph glyph-name="Ntilde" unicode="&#xd1;" horiz-adv-x="690" 
d="M165 800l280 -476q18 -32 26 -60t8 -64v-30h46v-170l-280 466q-19 31 -26.5 59.5t-7.5 64.5v40h-46v170zM60 800h105v-800h-105v800zM630 0h-105v800h105v-800zM222 953.5q-26 24.5 -26 62.5v34h62v-34q0 -13 8.5 -21.5t21.5 -8.5t22.5 7.5t20.5 22.5q14 20 29 31t41 11
q40 0 66 -24.5t26 -62.5v-34h-62v34q0 13 -8.5 21.5t-21.5 8.5t-22.5 -7.5t-23.5 -23.5q-16 -20 -30.5 -30.5t-36.5 -10.5q-40 0 -66 24.5z" />
    <glyph glyph-name="O" unicode="O" horiz-adv-x="742" 
d="M197 38.5q-78 54.5 -122.5 149.5t-44.5 212t44.5 212t122.5 149.5t174 54.5t174 -54.5t122.5 -149.5t44.5 -212t-44.5 -212t-122.5 -149.5t-174 -54.5t-174 54.5zM492.5 118.5q53.5 41.5 83.5 115t30 166.5t-30 166.5t-83.5 115t-121.5 41.5t-121.5 -41.5t-83.5 -115
t-30 -166.5t30 -166.5t83.5 -115t121.5 -41.5t121.5 41.5z" />
    <glyph glyph-name="Oacute" unicode="&#xd3;" horiz-adv-x="742" 
d="M197 38.5q-78 54.5 -122.5 149.5t-44.5 212t44.5 212t122.5 149.5t174 54.5t174 -54.5t122.5 -149.5t44.5 -212t-44.5 -212t-122.5 -149.5t-174 -54.5t-174 54.5zM492.5 118.5q53.5 41.5 83.5 115t30 166.5t-30 166.5t-83.5 115t-121.5 41.5t-121.5 -41.5t-83.5 -115
t-30 -166.5t30 -166.5t83.5 -115t121.5 -41.5t121.5 41.5zM493 1066l-72 42l-72 -155l46 -27z" />
    <glyph glyph-name="Ocircumflex" unicode="&#xd4;" horiz-adv-x="742" 
d="M197 38.5q-78 54.5 -122.5 149.5t-44.5 212t44.5 212t122.5 149.5t174 54.5t174 -54.5t122.5 -149.5t44.5 -212t-44.5 -212t-122.5 -149.5t-174 -54.5t-174 54.5zM492.5 118.5q53.5 41.5 83.5 115t30 166.5t-30 166.5t-83.5 115t-121.5 41.5t-121.5 -41.5t-83.5 -115
t-30 -166.5t30 -166.5t83.5 -115t121.5 -41.5t121.5 41.5zM320 1050h102l131 -147h-102l-80 95l-80 -95h-102z" />
    <glyph glyph-name="Odieresis" unicode="&#xd6;" horiz-adv-x="742" 
d="M197 38.5q-78 54.5 -122.5 149.5t-44.5 212t44.5 212t122.5 149.5t174 54.5t174 -54.5t122.5 -149.5t44.5 -212t-44.5 -212t-122.5 -149.5t-174 -54.5t-174 54.5zM492.5 118.5q53.5 41.5 83.5 115t30 166.5t-30 166.5t-83.5 115t-121.5 41.5t-121.5 -41.5t-83.5 -115
t-30 -166.5t30 -166.5t83.5 -115t121.5 -41.5t121.5 41.5zM254.33 1049.99h83.3252v-99.9902h-83.3252v99.9902zM404.33 1049.99h83.3252v-99.9902h-83.3252v99.9902z" />
    <glyph glyph-name="Ograve" unicode="&#xd2;" horiz-adv-x="742" 
d="M197 38.5q-78 54.5 -122.5 149.5t-44.5 212t44.5 212t122.5 149.5t174 54.5t174 -54.5t122.5 -149.5t44.5 -212t-44.5 -212t-122.5 -149.5t-174 -54.5t-174 54.5zM492.5 118.5q53.5 41.5 83.5 115t30 166.5t-30 166.5t-83.5 115t-121.5 41.5t-121.5 -41.5t-83.5 -115
t-30 -166.5t30 -166.5t83.5 -115t121.5 -41.5t121.5 41.5zM259 1066l72 42l72 -155l-46 -27z" />
    <glyph glyph-name="Oslash" unicode="&#xd8;" horiz-adv-x="752" 
d="M197 38.5q-78 54.5 -122.5 149.5t-44.5 212t44.5 212t122.5 149.5t174 54.5t174 -54.5t122.5 -149.5t44.5 -212t-44.5 -212t-122.5 -149.5t-174 -54.5t-174 54.5zM492.5 118.5q53.5 41.5 83.5 115t30 166.5t-30 166.5t-83.5 115t-121.5 41.5t-121.5 -41.5t-83.5 -115
t-30 -166.5t30 -166.5t83.5 -115t121.5 -41.5t121.5 41.5zM632 800h90l-592 -800h-90z" />
    <glyph glyph-name="Otilde" unicode="&#xd5;" horiz-adv-x="742" 
d="M197 38.5q-78 54.5 -122.5 149.5t-44.5 212t44.5 212t122.5 149.5t174 54.5t174 -54.5t122.5 -149.5t44.5 -212t-44.5 -212t-122.5 -149.5t-174 -54.5t-174 54.5zM492.5 118.5q53.5 41.5 83.5 115t30 166.5t-30 166.5t-83.5 115t-121.5 41.5t-121.5 -41.5t-83.5 -115
t-30 -166.5t30 -166.5t83.5 -115t121.5 -41.5t121.5 41.5zM248 953.5q-26 24.5 -26 62.5v34h62v-34q0 -13 8.5 -21.5t21.5 -8.5t22.5 7.5t20.5 22.5q14 20 29 31t41 11q40 0 66 -24.5t26 -62.5v-34h-62v34q0 13 -8.5 21.5t-21.5 8.5t-22.5 -7.5t-23.5 -23.5
q-16 -20 -30.5 -30.5t-36.5 -10.5q-40 0 -66 24.5z" />
    <glyph glyph-name="OE" unicode="&#x152;" horiz-adv-x="1158" 
d="M197 38.5q-78 54.5 -122.5 149.5t-44.5 212t44.5 212t122.5 149.5t174 54.5t174 -54.5t122.5 -149.5t44.5 -212t-44.5 -212t-122.5 -149.5t-174 -54.5t-174 54.5zM492.5 118.5q53.5 41.5 83.5 115t30 166.5t-30 166.5t-83.5 115t-121.5 41.5t-121.5 -41.5t-83.5 -115
t-30 -166.5t30 -166.5t83.5 -115t121.5 -41.5t121.5 41.5zM618 800h105v-800h-105v800zM1118 90v-90h-458v90h458zM1118 800v-90h-458v90h458zM1118 454v-90h-458v90h458z" />
    <glyph glyph-name="P" unicode="P" horiz-adv-x="660" 
d="M165 800v-800h-105v800h105zM492 454.5q42 41.5 42 105.5t-42 105.5t-107 41.5h-246v93h246q74 0 132 -30.5t90.5 -85t32.5 -124.5t-32.5 -124.5t-90.5 -85t-132 -30.5h-246v93h246q65 0 107 41.5z" />
    <glyph glyph-name="Thorn" unicode="&#xde;" horiz-adv-x="660" 
d="M165 800v-800h-105v800h105zM492 304.5q42 41.5 42 105.5t-42 105.5t-107 41.5h-246v93h246q74 0 132 -30.5t90.5 -85t32.5 -124.5t-32.5 -124.5t-90.5 -85t-132 -30.5h-246v93h246q65 0 107 41.5z" />
    <glyph glyph-name="Q" unicode="Q" horiz-adv-x="710" 
d="M309 338h115l254 -338h-115zM187 42.5q-74 52.5 -115.5 145.5t-41.5 212t41.5 212t115.5 145.5t168 52.5t168 -52.5t115.5 -145.5t41.5 -212q0 -108 -34 -194.5t-95 -140.5q-1 -1 -24 15q-25 19 -27 17l-34 -23q2 -34 -13.5 -52.5t-40 -25t-57.5 -6.5q-94 0 -168 52.5z
M448 109.5q42 26.5 73 74.5q1 1 17 -9l15 -8l31 27q-18 21 -22 44.5t3 63.5q9 47 9 98q0 92 -28 164t-78 112.5t-113 40.5t-113 -40.5t-78 -112.5t-28 -164t28 -164t78 -112.5t113 -40.5q51 0 93 26.5z" />
    <glyph glyph-name="R" unicode="R" horiz-adv-x="680" 
d="M165 800v-800h-105v800h105zM493.5 471.5q40.5 38.5 40.5 98.5t-40.5 98.5t-103.5 38.5h-251v93h251q72 0 129 -29.5t89 -81.5t32 -119t-32 -119t-89 -81.5t-129 -29.5h-251v93h251q63 0 103.5 38.5zM428 397l240 -397h-120l-240 397h120z" />
    <glyph glyph-name="S" unicode="S" horiz-adv-x="682" 
d="M85 697q37 53 100.5 83t139.5 30q84 0 152.5 -37.5t107.5 -101.5t39 -141h-106q0 52 -24 94.5t-68 67.5t-101 25q-71 0 -121 -35.5t-50 -98.5q0 -97 133 -125q38 -8 116 -22q106 -19 172.5 -68t66.5 -149q0 -73 -39.5 -124.5t-104.5 -78t-141 -26.5q-86 0 -158.5 34
t-115.5 97t-43 148h107q0 -89 60 -137.5t151 -48.5q73 0 125 31.5t52 96.5q0 101 -137 127q-58 11 -141 30q-95 23 -152 75t-57 134q0 67 37 120z" />
    <glyph glyph-name="Scaron" unicode="&#x160;" horiz-adv-x="682" 
d="M85 697q37 53 100.5 83t139.5 30q84 0 152.5 -37.5t107.5 -101.5t39 -141h-106q0 52 -24 94.5t-68 67.5t-101 25q-71 0 -121 -35.5t-50 -98.5q0 -97 133 -125q38 -8 116 -22q106 -19 172.5 -68t66.5 -149q0 -73 -39.5 -124.5t-104.5 -78t-141 -26.5q-86 0 -158.5 34
t-115.5 97t-43 148h107q0 -89 60 -137.5t151 -48.5q73 0 125 31.5t52 96.5q0 101 -137 127q-58 11 -141 30q-95 23 -152 75t-57 134q0 67 37 120zM290 903h102l131 147h-102l-80 -95l-80 95h-102z" />
    <glyph glyph-name="T" unicode="T" horiz-adv-x="567" 
d="M231 800h105v-800h-105v800zM557 800v-90h-547v90h547z" />
    <glyph glyph-name="U" unicode="U" horiz-adv-x="670" 
d="M50 800h105v-527h-105v527zM515 800h105v-527h-105v527zM492 174.5q-23 -43.5 -64 -68t-93 -24.5t-93 24.5t-64 68t-23 98.5h-105q0 -82 36.5 -146.5t101 -100.5t147.5 -36t147.5 36t101 100.5t36.5 146.5h-105q0 -55 -23 -98.5z" />
    <glyph glyph-name="Uacute" unicode="&#xda;" horiz-adv-x="670" 
d="M50 800h105v-527h-105v527zM515 800h105v-527h-105v527zM492 174.5q-23 -43.5 -64 -68t-93 -24.5t-93 24.5t-64 68t-23 98.5h-105q0 -82 36.5 -146.5t101 -100.5t147.5 -36t147.5 36t101 100.5t36.5 146.5h-105q0 -55 -23 -98.5zM457 1066l-72 42l-72 -155l46 -27z" />
    <glyph glyph-name="Ucircumflex" unicode="&#xdb;" horiz-adv-x="670" 
d="M50 800h105v-527h-105v527zM515 800h105v-527h-105v527zM492 174.5q-23 -43.5 -64 -68t-93 -24.5t-93 24.5t-64 68t-23 98.5h-105q0 -82 36.5 -146.5t101 -100.5t147.5 -36t147.5 36t101 100.5t36.5 146.5h-105q0 -55 -23 -98.5zM284 1050h102l131 -147h-102l-80 95
l-80 -95h-102z" />
    <glyph glyph-name="Udieresis" unicode="&#xdc;" horiz-adv-x="670" 
d="M50 800h105v-527h-105v527zM515 800h105v-527h-105v527zM492 174.5q-23 -43.5 -64 -68t-93 -24.5t-93 24.5t-64 68t-23 98.5h-105q0 -82 36.5 -146.5t101 -100.5t147.5 -36t147.5 36t101 100.5t36.5 146.5h-105q0 -55 -23 -98.5zM218.33 1049.99h83.3252v-99.9902
h-83.3252v99.9902zM368.33 1049.99h83.3252v-99.9902h-83.3252v99.9902z" />
    <glyph glyph-name="Ugrave" unicode="&#xd9;" horiz-adv-x="670" 
d="M50 800h105v-527h-105v527zM515 800h105v-527h-105v527zM492 174.5q-23 -43.5 -64 -68t-93 -24.5t-93 24.5t-64 68t-23 98.5h-105q0 -82 36.5 -146.5t101 -100.5t147.5 -36t147.5 36t101 100.5t36.5 146.5h-105q0 -55 -23 -98.5zM223 1066l72 42l72 -155l-46 -27z" />
    <glyph glyph-name="V" unicode="V" horiz-adv-x="726" 
d="M5 800h108l213 -564q11 -29 14 -55t3 -66h40q0 40 3 66t14 55l213 564h108l-302 -800h-112z" />
    <glyph glyph-name="W" unicode="W" horiz-adv-x="1084" 
d="M5 800h104l143 -564q9 -35 13 -62t4 -59h40q0 33 4 60.5t13 60.5l163 564h106l163 -564q9 -33 13 -60.5t4 -60.5h40q0 32 4 59t13 62l143 564h104l-219 -800h-130l-155 520q-9 29 -11 54t-2 67v34h-40v-34q0 -42 -2 -67t-11 -54l-155 -520h-130z" />
    <glyph glyph-name="X" unicode="X" horiz-adv-x="700" 
d="M298 410l-283 390h117l181 -249q14 -20 16.5 -37.5t1.5 -38.5q-1 -3 -1 -9h40q0 6 -1 9q-1 21 1.5 38.5t16.5 37.5l181 249h117l-282 -390l292 -410h-117l-191 269q-14 20 -16.5 37.5t-1.5 38.5q1 3 1 9h-40q0 -6 1 -9q1 -21 -1.5 -38.5t-16.5 -37.5l-191 -269h-117z" />
    <glyph glyph-name="Y" unicode="Y" horiz-adv-x="680" 
d="M288 280l-283 520h109l189 -355q12 -21 14.5 -39.5t2.5 -40.5v-5h40v5q0 22 2.5 40.5t14.5 39.5l189 355h109l-282 -520v-280h-105v280z" />
    <glyph glyph-name="Yacute" unicode="&#xdd;" horiz-adv-x="680" 
d="M288 280l-283 520h109l189 -355q12 -21 14.5 -39.5t2.5 -40.5v-5h40v5q0 22 2.5 40.5t14.5 39.5l189 355h109l-282 -520v-280h-105v280zM462 1066l-72 42l-72 -155l46 -27z" />
    <glyph glyph-name="Ydieresis" unicode="&#x178;" horiz-adv-x="680" 
d="M288 280l-283 520h109l189 -355q12 -21 14.5 -39.5t2.5 -40.5v-5h40v5q0 22 2.5 40.5t14.5 39.5l189 355h109l-282 -520v-280h-105v280zM223.33 1049.99h83.3252v-99.9902h-83.3252v99.9902zM373.33 1049.99h83.3252v-99.9902h-83.3252v99.9902z" />
    <glyph glyph-name="Z" unicode="Z" horiz-adv-x="608" 
d="M10 92l405 525q24 32 46 44t51 12v35h-452v92h538v-92l-401 -525q-24 -32 -47 -44t-53 -12v-35h501v-92h-588v92z" />
    <glyph glyph-name="Zcaron" unicode="&#x17d;" horiz-adv-x="608" 
d="M10 92l405 525q24 32 46 44t51 12v35h-452v92h538v-92l-401 -525q-24 -32 -47 -44t-53 -12v-35h501v-92h-588v92zM253 903h102l131 147h-102l-80 -95l-80 95h-102z" />
    <glyph glyph-name="Q.ss01" horiz-adv-x="742" 
d="M319 338h115l254 -338h-115zM197 38.5q-78 54.5 -122.5 149.5t-44.5 212t44.5 212t122.5 149.5t174 54.5t174 -54.5t122.5 -149.5t44.5 -212t-44.5 -212t-122.5 -149.5t-174 -54.5t-174 54.5zM492.5 118.5q53.5 41.5 83.5 115t30 166.5t-30 166.5t-83.5 115t-121.5 41.5
t-121.5 -41.5t-83.5 -115t-30 -166.5t30 -166.5t83.5 -115t121.5 -41.5t121.5 41.5z" />
    <glyph glyph-name="a" unicode="a" horiz-adv-x="565" 
d="M125 26.5q-47 36.5 -73.5 101.5t-26.5 148t27 148t74.5 101.5t108.5 36.5q51 0 88.5 -28t51.5 -74h30v90h100v-550h-100v92h-30q-16 -46 -54 -74t-90 -28q-59 0 -106 36.5zM337 105q32 25 50 70.5t18 102.5q0 56 -18 100.5t-50 69t-72 24.5q-41 0 -72.5 -25t-49.5 -69.5
t-18 -101.5t18 -101.5t49.5 -69.5t72.5 -25q40 0 72 25z" />
    <glyph glyph-name="aacute" unicode="&#xe1;" horiz-adv-x="565" 
d="M125 26.5q-47 36.5 -73.5 101.5t-26.5 148t27 148t74.5 101.5t108.5 36.5q51 0 88.5 -28t51.5 -74h30v90h100v-550h-100v92h-30q-16 -46 -54 -74t-90 -28q-59 0 -106 36.5zM337 105q32 25 50 70.5t18 102.5q0 56 -18 100.5t-50 69t-72 24.5q-41 0 -72.5 -25t-49.5 -69.5
t-18 -101.5t18 -101.5t49.5 -69.5t72.5 -25q40 0 72 25zM405 816l-72 42l-72 -155l46 -27z" />
    <glyph glyph-name="acircumflex" unicode="&#xe2;" horiz-adv-x="565" 
d="M125 26.5q-47 36.5 -73.5 101.5t-26.5 148t27 148t74.5 101.5t108.5 36.5q51 0 88.5 -28t51.5 -74h30v90h100v-550h-100v92h-30q-16 -46 -54 -74t-90 -28q-59 0 -106 36.5zM337 105q32 25 50 70.5t18 102.5q0 56 -18 100.5t-50 69t-72 24.5q-41 0 -72.5 -25t-49.5 -69.5
t-18 -101.5t18 -101.5t49.5 -69.5t72.5 -25q40 0 72 25zM232 800h102l131 -147h-102l-80 95l-80 -95h-102z" />
    <glyph glyph-name="adieresis" unicode="&#xe4;" horiz-adv-x="565" 
d="M125 26.5q-47 36.5 -73.5 101.5t-26.5 148t27 148t74.5 101.5t108.5 36.5q51 0 88.5 -28t51.5 -74h30v90h100v-550h-100v92h-30q-16 -46 -54 -74t-90 -28q-59 0 -106 36.5zM337 105q32 25 50 70.5t18 102.5q0 56 -18 100.5t-50 69t-72 24.5q-41 0 -72.5 -25t-49.5 -69.5
t-18 -101.5t18 -101.5t49.5 -69.5t72.5 -25q40 0 72 25zM166.33 799.99h83.3252v-99.9902h-83.3252v99.9902zM316.33 799.99h83.3252v-99.9902h-83.3252v99.9902z" />
    <glyph glyph-name="agrave" unicode="&#xe0;" horiz-adv-x="565" 
d="M125 26.5q-47 36.5 -73.5 101.5t-26.5 148t27 148t74.5 101.5t108.5 36.5q51 0 88.5 -28t51.5 -74h30v90h100v-550h-100v92h-30q-16 -46 -54 -74t-90 -28q-59 0 -106 36.5zM337 105q32 25 50 70.5t18 102.5q0 56 -18 100.5t-50 69t-72 24.5q-41 0 -72.5 -25t-49.5 -69.5
t-18 -101.5t18 -101.5t49.5 -69.5t72.5 -25q40 0 72 25zM171 816l72 42l72 -155l-46 -27z" />
    <glyph glyph-name="aring" unicode="&#xe5;" horiz-adv-x="565" 
d="M125 26.5q-47 36.5 -73.5 101.5t-26.5 148t27 148t74.5 101.5t108.5 36.5q51 0 88.5 -28t51.5 -74h30v90h100v-550h-100v92h-30q-16 -46 -54 -74t-90 -28q-59 0 -106 36.5zM337 105q32 25 50 70.5t18 102.5q0 56 -18 100.5t-50 69t-72 24.5q-41 0 -72.5 -25t-49.5 -69.5
t-18 -101.5t18 -101.5t49.5 -69.5t72.5 -25q40 0 72 25zM217 675.5q-26 24.5 -26 62.5t26 62.5t66 24.5t66 -24.5t26 -62.5t-26 -62.5t-66 -24.5t-66 24.5zM304.5 716.5q8.5 8.5 8.5 21.5t-8.5 21.5t-21.5 8.5t-21.5 -8.5t-8.5 -21.5t8.5 -21.5t21.5 -8.5t21.5 8.5z" />
    <glyph glyph-name="atilde" unicode="&#xe3;" horiz-adv-x="565" 
d="M125 26.5q-47 36.5 -73.5 101.5t-26.5 148t27 148t74.5 101.5t108.5 36.5q51 0 88.5 -28t51.5 -74h30v90h100v-550h-100v92h-30q-16 -46 -54 -74t-90 -28q-59 0 -106 36.5zM337 105q32 25 50 70.5t18 102.5q0 56 -18 100.5t-50 69t-72 24.5q-41 0 -72.5 -25t-49.5 -69.5
t-18 -101.5t18 -101.5t49.5 -69.5t72.5 -25q40 0 72 25zM160 703.5q-26 24.5 -26 62.5v34h62v-34q0 -13 8.5 -21.5t21.5 -8.5t22.5 7.5t20.5 22.5q14 20 29 31t41 11q40 0 66 -24.5t26 -62.5v-34h-62v34q0 13 -8.5 21.5t-21.5 8.5t-22.5 -7.5t-23.5 -23.5
q-16 -20 -30.5 -30.5t-36.5 -10.5q-40 0 -66 24.5z" />
    <glyph glyph-name="ae" unicode="&#xe6;" horiz-adv-x="936" 
d="M374.5 443q-35.5 33 -91.5 33q-49 0 -83 -22t-34 -54h-100q0 46 26.5 84t74.5 60t108 22q72 0 120 -35.5t66 -112.5h30q20 72 70 108t120 36q76 0 130 -40.5t79.5 -112.5t19.5 -165h-397q8 -74 48.5 -119t100.5 -45q47 0 85.5 28.5t51.5 73.5h103q-11 -55 -44 -99
t-82 -68.5t-105 -24.5q-67 0 -118.5 31t-84.5 99h-38q-12 -62 -66.5 -97t-123.5 -35q-60 0 -108 26.5t-75 72.5t-27 102t23.5 102t66.5 72.5t101 26.5q60 0 101.5 -28.5t57.5 -73.5h30v58q0 64 -35.5 97zM163.5 109q33.5 -31 86.5 -31q52 0 85.5 32t34.5 81
q-1 48 -34.5 78.5t-85.5 30.5q-53 0 -86.5 -31t-33.5 -80t33.5 -80zM757.5 433.5q-40.5 38.5 -96.5 38.5q-54 0 -92.5 -37.5t-51.5 -100.5h289q-8 61 -48.5 99.5z" />
    <glyph glyph-name="b" unicode="b" horiz-adv-x="565" 
d="M244 18q-38 28 -54 74h-30v-92h-100v800h100v-340h30q14 46 51.5 74t88.5 28q61 0 108.5 -36.5t74.5 -101.5t27 -148t-26.5 -148t-73.5 -101.5t-106 -36.5q-52 0 -90 28zM372.5 105q31.5 25 49.5 69.5t18 101.5t-18 101.5t-49.5 69.5t-72.5 25q-40 0 -72 -24.5t-50 -69
t-18 -100.5q0 -57 18 -102.5t50 -70.5t72 -25q41 0 72.5 25z" />
    <glyph glyph-name="c" unicode="c" horiz-adv-x="544" 
d="M479.5 90q-32.5 -47 -83.5 -73.5t-111 -26.5q-75 0 -134.5 36.5t-92.5 101.5t-33 148t33.5 148t92.5 101.5t135 36.5q60 0 110.5 -25.5t82.5 -70.5t39 -102h-104q-6 47 -45 77.5t-94 30.5q-43 0 -77.5 -25t-53.5 -69.5t-19 -101.5t19.5 -101.5t53.5 -69.5t78 -25
q54 0 93.5 32.5t47.5 84.5h102q-7 -60 -39.5 -107z" />
    <glyph glyph-name="ccedilla" unicode="&#xe7;" horiz-adv-x="544" 
d="M479.5 90q-32.5 -47 -83.5 -73.5t-111 -26.5q-75 0 -134.5 36.5t-92.5 101.5t-33 148t33.5 148t92.5 101.5t135 36.5q60 0 110.5 -25.5t82.5 -70.5t39 -102h-104q-6 47 -45 77.5t-94 30.5q-43 0 -77.5 -25t-53.5 -69.5t-19 -101.5t19.5 -101.5t53.5 -69.5t78 -25
q54 0 93.5 32.5t47.5 84.5h102q-7 -60 -39.5 -107zM262.5 -159.5q28.5 8.5 28.5 21.5t-28.5 21.5t-71.5 8.5l17 57q62 0 103.5 -25t41.5 -62t-46 -62t-116 -25v57q43 0 71.5 8.5zM208 -51l18 58h39l-18 -78z" />
    <glyph glyph-name="d" unicode="d" horiz-adv-x="565" 
d="M321 18q38 28 54 74h30v-92h100v800h-100v-340h-30q-14 46 -51.5 74t-88.5 28q-61 0 -108.5 -36.5t-74.5 -101.5t-27 -148t26.5 -148t73.5 -101.5t106 -36.5q52 0 90 28zM192.5 105q-31.5 25 -49.5 69.5t-18 101.5t18 101.5t49.5 69.5t72.5 25q40 0 72 -24.5t50 -69
t18 -100.5q0 -57 -18 -102.5t-50 -70.5t-72 -25q-41 0 -72.5 25z" />
    <glyph glyph-name="e" unicode="e" 
d="M471 334l53 -90h-423v90h370zM472 83q-33 -44 -82 -68.5t-105 -24.5q-75 0 -134.5 36.5t-92.5 101.5t-33 148t33.5 148t92.5 101.5t135 36.5q75 0 131 -40.5t84.5 -113t22.5 -164.5l-103 85q-7 63 -48.5 103t-97.5 40q-43 0 -77.5 -25t-53.5 -69.5t-19 -101.5
t19.5 -101.5t53.5 -69.5t78 -25q47 0 85.5 28.5t51.5 73.5h103q-11 -55 -44 -99z" />
    <glyph glyph-name="eacute" unicode="&#xe9;" 
d="M471 334l53 -90h-423v90h370zM472 83q-33 -44 -82 -68.5t-105 -24.5q-75 0 -134.5 36.5t-92.5 101.5t-33 148t33.5 148t92.5 101.5t135 36.5q75 0 131 -40.5t84.5 -113t22.5 -164.5l-103 85q-7 63 -48.5 103t-97.5 40q-43 0 -77.5 -25t-53.5 -69.5t-19 -101.5
t19.5 -101.5t53.5 -69.5t78 -25q47 0 85.5 28.5t51.5 73.5h103q-11 -55 -44 -99zM397 816l-72 42l-72 -155l46 -27z" />
    <glyph glyph-name="ecircumflex" unicode="&#xea;" 
d="M471 334l53 -90h-423v90h370zM472 83q-33 -44 -82 -68.5t-105 -24.5q-75 0 -134.5 36.5t-92.5 101.5t-33 148t33.5 148t92.5 101.5t135 36.5q75 0 131 -40.5t84.5 -113t22.5 -164.5l-103 85q-7 63 -48.5 103t-97.5 40q-43 0 -77.5 -25t-53.5 -69.5t-19 -101.5
t19.5 -101.5t53.5 -69.5t78 -25q47 0 85.5 28.5t51.5 73.5h103q-11 -55 -44 -99zM224 800h102l131 -147h-102l-80 95l-80 -95h-102z" />
    <glyph glyph-name="edieresis" unicode="&#xeb;" 
d="M471 334l53 -90h-423v90h370zM472 83q-33 -44 -82 -68.5t-105 -24.5q-75 0 -134.5 36.5t-92.5 101.5t-33 148t33.5 148t92.5 101.5t135 36.5q75 0 131 -40.5t84.5 -113t22.5 -164.5l-103 85q-7 63 -48.5 103t-97.5 40q-43 0 -77.5 -25t-53.5 -69.5t-19 -101.5
t19.5 -101.5t53.5 -69.5t78 -25q47 0 85.5 28.5t51.5 73.5h103q-11 -55 -44 -99zM158.33 799.99h83.3252v-99.9902h-83.3252v99.9902zM308.33 799.99h83.3252v-99.9902h-83.3252v99.9902z" />
    <glyph glyph-name="egrave" unicode="&#xe8;" 
d="M471 334l53 -90h-423v90h370zM472 83q-33 -44 -82 -68.5t-105 -24.5q-75 0 -134.5 36.5t-92.5 101.5t-33 148t33.5 148t92.5 101.5t135 36.5q75 0 131 -40.5t84.5 -113t22.5 -164.5l-103 85q-7 63 -48.5 103t-97.5 40q-43 0 -77.5 -25t-53.5 -69.5t-19 -101.5
t19.5 -101.5t53.5 -69.5t78 -25q47 0 85.5 28.5t51.5 73.5h103q-11 -55 -44 -99zM163 816l72 42l72 -155l-46 -27z" />
    <glyph glyph-name="f" unicode="f" horiz-adv-x="419" 
d="M192 590v-590h-100v590h100zM226.5 676q34.5 34 87.5 34h95v90h-95q-64 0 -114.5 -27t-79 -74.5t-28.5 -108.5h100q0 52 34.5 86zM403 550v-90h-383v90h383z" />
    <glyph glyph-name="g" unicode="g" horiz-adv-x="565" 
d="M405 132h-30q-16 -46 -53 -74t-86 -28q-61 0 -109 34t-75 94.5t-27 137.5t27 137.5t74.5 94.5t108.5 34q52 0 89 -28t51 -74h30v90h100v-550h-100v132zM168.5 -185q-50.5 25 -79 69.5t-28.5 101.5h100q0 -46 34.5 -76t87.5 -30t87.5 34t34.5 86h100q0 -61 -28.5 -108.5
t-79 -74.5t-114.5 -27t-114.5 25zM336.5 143q31.5 23 50 63.5t18.5 91.5q-1 76 -40 125t-100 49q-41 0 -72.5 -22.5t-49.5 -62.5t-18 -91t18 -91t49.5 -62.5t72.5 -22.5q40 0 71.5 23z" />
    <glyph glyph-name="h" unicode="h" horiz-adv-x="555" 
d="M60 800h100v-340h30q14 46 52.5 74t90.5 28q51 0 91.5 -27.5t63 -76.5t22.5 -112v-346h-100v346q0 55 -31 90.5t-79 35.5q-41 0 -72.5 -25t-49.5 -69.5t-18 -101.5v-276h-100v800z" />
    <glyph glyph-name="i" unicode="i" horiz-adv-x="220" 
d="M60 800h100v-120h-100v120zM60 550h100v-550h-100v550z" />
    <glyph glyph-name="dotlessi" unicode="&#x131;" horiz-adv-x="220" 
d="M60 550h100v-550h-100v550z" />
    <glyph glyph-name="iacute" unicode="&#xed;" horiz-adv-x="220" 
d="M60 550h100v-550h-100v550zM232 816l-72 42l-72 -155l46 -27z" />
    <glyph glyph-name="icircumflex" unicode="&#xee;" horiz-adv-x="220" 
d="M60 550h100v-550h-100v550zM59 800h102l131 -147h-102l-80 95l-80 -95h-102z" />
    <glyph glyph-name="idieresis" unicode="&#xef;" horiz-adv-x="220" 
d="M60 550h100v-550h-100v550zM-6.66992 799.99h83.3252v-99.9902h-83.3252v99.9902zM143.33 799.99h83.3252v-99.9902h-83.3252v99.9902z" />
    <glyph glyph-name="igrave" unicode="&#xec;" horiz-adv-x="220" 
d="M60 550h100v-550h-100v550zM-2 816l72 42l72 -155l-46 -27z" />
    <glyph glyph-name="j" unicode="j" horiz-adv-x="220" 
d="M60 0v550h100v-550h-100zM25.5 -86q-34.5 -34 -87.5 -34q-50 0 -83 26t-39 60h-100q4 -48 32 -88t77.5 -64t112.5 -24q64 0 114.5 27t79 74.5t28.5 108.5h-100q0 -52 -34.5 -86zM60 800h100v-120h-100v120z" />
    <glyph glyph-name="k" unicode="k" horiz-adv-x="500" 
d="M60 800h105v-800h-105v800zM205 330q-1 21 2 34.5t15 26.5l153 159h125l-262 -275l262 -275h-125l-153 159q-12 13 -15 26.5t-2 34.5v10h-40v90h40v10z" />
    <glyph glyph-name="l" unicode="l" horiz-adv-x="220" 
d="M60 800h100v-800h-100v800z" />
    <glyph glyph-name="m" unicode="m" horiz-adv-x="825" 
d="M60 550h100v-90h30q14 46 46.5 74t76.5 28q45 0 80.5 -27t55.5 -75h31q14 46 49.5 74t83.5 28t86 -27.5t59.5 -76.5t21.5 -112v-346h-100v346q0 56 -25 91t-65 35q-35 0 -62 -25t-42.5 -69.5t-15.5 -101.5v-276h-100v346q0 56 -25 91t-65 35q-35 0 -62 -25t-42.5 -69.5
t-15.5 -101.5v-276h-100v550z" />
    <glyph glyph-name="n" unicode="n" horiz-adv-x="555" 
d="M60 550h100v-90h30q14 46 52.5 74t90.5 28q51 0 91.5 -27.5t63 -76.5t22.5 -112v-346h-100v346q0 55 -31 90.5t-79 35.5q-41 0 -72.5 -25t-49.5 -69.5t-18 -101.5v-276h-100v550z" />
    <glyph glyph-name="ntilde" unicode="&#xf1;" horiz-adv-x="555" 
d="M60 550h100v-90h30q14 46 52.5 74t90.5 28q51 0 91.5 -27.5t63 -76.5t22.5 -112v-346h-100v346q0 55 -31 90.5t-79 35.5q-41 0 -72.5 -25t-49.5 -69.5t-18 -101.5v-276h-100v550zM155 703.5q-26 24.5 -26 62.5v34h62v-34q0 -13 8.5 -21.5t21.5 -8.5t22.5 7.5t20.5 22.5
q14 20 29 31t41 11q40 0 66 -24.5t26 -62.5v-34h-62v34q0 13 -8.5 21.5t-21.5 8.5t-22.5 -7.5t-23.5 -23.5q-16 -20 -30.5 -30.5t-36.5 -10.5q-40 0 -66 24.5z" />
    <glyph glyph-name="o" unicode="o" 
d="M146 26.5q-57 36.5 -89 101.5t-32 148t32 148t89 101.5t130 36.5q72 0 129 -36.5t88.5 -101.5t31.5 -148t-32 -148t-89 -101.5t-129 -36.5t-129 36.5zM144 174.5q19 -44.5 53.5 -69.5t77.5 -25t77.5 25t53.5 69.5t19 101.5t-19 101.5t-53.5 69.5t-77.5 25t-77.5 -25
t-53.5 -69.5t-19 -101.5t19 -101.5z" />
    <glyph glyph-name="oacute" unicode="&#xf3;" 
d="M146 26.5q-57 36.5 -89 101.5t-32 148t32 148t89 101.5t130 36.5q72 0 129 -36.5t88.5 -101.5t31.5 -148t-32 -148t-89 -101.5t-129 -36.5t-129 36.5zM144 174.5q19 -44.5 53.5 -69.5t77.5 -25t77.5 25t53.5 69.5t19 101.5t-19 101.5t-53.5 69.5t-77.5 25t-77.5 -25
t-53.5 -69.5t-19 -101.5t19 -101.5zM397 816l-72 42l-72 -155l46 -27z" />
    <glyph glyph-name="ocircumflex" unicode="&#xf4;" 
d="M146 26.5q-57 36.5 -89 101.5t-32 148t32 148t89 101.5t130 36.5q72 0 129 -36.5t88.5 -101.5t31.5 -148t-32 -148t-89 -101.5t-129 -36.5t-129 36.5zM144 174.5q19 -44.5 53.5 -69.5t77.5 -25t77.5 25t53.5 69.5t19 101.5t-19 101.5t-53.5 69.5t-77.5 25t-77.5 -25
t-53.5 -69.5t-19 -101.5t19 -101.5zM224 800h102l131 -147h-102l-80 95l-80 -95h-102z" />
    <glyph glyph-name="odieresis" unicode="&#xf6;" 
d="M146 26.5q-57 36.5 -89 101.5t-32 148t32 148t89 101.5t130 36.5q72 0 129 -36.5t88.5 -101.5t31.5 -148t-32 -148t-89 -101.5t-129 -36.5t-129 36.5zM144 174.5q19 -44.5 53.5 -69.5t77.5 -25t77.5 25t53.5 69.5t19 101.5t-19 101.5t-53.5 69.5t-77.5 25t-77.5 -25
t-53.5 -69.5t-19 -101.5t19 -101.5zM158.33 799.99h83.3252v-99.9902h-83.3252v99.9902zM308.33 799.99h83.3252v-99.9902h-83.3252v99.9902z" />
    <glyph glyph-name="ograve" unicode="&#xf2;" 
d="M146 26.5q-57 36.5 -89 101.5t-32 148t32 148t89 101.5t130 36.5q72 0 129 -36.5t88.5 -101.5t31.5 -148t-32 -148t-89 -101.5t-129 -36.5t-129 36.5zM144 174.5q19 -44.5 53.5 -69.5t77.5 -25t77.5 25t53.5 69.5t19 101.5t-19 101.5t-53.5 69.5t-77.5 25t-77.5 -25
t-53.5 -69.5t-19 -101.5t19 -101.5zM163 816l72 42l72 -155l-46 -27z" />
    <glyph glyph-name="oslash" unicode="&#xf8;" 
d="M146 26.5q-57 36.5 -89 101.5t-32 148t32 148t89 101.5t130 36.5q72 0 129 -36.5t88.5 -101.5t31.5 -148t-32 -148t-89 -101.5t-129 -36.5t-129 36.5zM144 174.5q19 -44.5 53.5 -69.5t77.5 -25t77.5 25t53.5 69.5t19 101.5t-19 101.5t-53.5 69.5t-77.5 25t-77.5 -25
t-53.5 -69.5t-19 -101.5t19 -101.5zM435 550h90l-410 -550h-90z" />
    <glyph glyph-name="otilde" unicode="&#xf5;" 
d="M146 26.5q-57 36.5 -89 101.5t-32 148t32 148t89 101.5t130 36.5q72 0 129 -36.5t88.5 -101.5t31.5 -148t-32 -148t-89 -101.5t-129 -36.5t-129 36.5zM144 174.5q19 -44.5 53.5 -69.5t77.5 -25t77.5 25t53.5 69.5t19 101.5t-19 101.5t-53.5 69.5t-77.5 25t-77.5 -25
t-53.5 -69.5t-19 -101.5t19 -101.5zM152 703.5q-26 24.5 -26 62.5v34h62v-34q0 -13 8.5 -21.5t21.5 -8.5t22.5 7.5t20.5 22.5q14 20 29 31t41 11q40 0 66 -24.5t26 -62.5v-34h-62v34q0 13 -8.5 21.5t-21.5 8.5t-22.5 -7.5t-23.5 -23.5q-16 -20 -30.5 -30.5t-36.5 -10.5
q-40 0 -66 24.5z" />
    <glyph glyph-name="oe" unicode="&#x153;" horiz-adv-x="925" 
d="M121 26.5q-57 36.5 -89 101.5t-32 148t32 148t89 101.5t130 36.5q72 0 129 -36.5t88.5 -101.5t31.5 -148t-32 -148t-89 -101.5t-129 -36.5t-129 36.5zM119 174.5q19 -44.5 53.5 -69.5t77.5 -25t77.5 25t53.5 69.5t19 101.5t-19 101.5t-53.5 69.5t-77.5 25t-77.5 -25
t-53.5 -69.5t-19 -101.5t19 -101.5zM846 334l53 -90h-423v90h370zM847 83q-33 -44 -82 -68.5t-105 -24.5q-75 0 -134.5 36.5t-92.5 101.5t-33 148t33.5 148t92.5 101.5t135 36.5q75 0 131 -40.5t84.5 -113t22.5 -164.5l-103 85q-7 63 -48.5 103t-97.5 40q-43 0 -77.5 -25
t-53.5 -69.5t-19 -101.5t19.5 -101.5t53.5 -69.5t78 -25q47 0 85.5 28.5t51.5 73.5h103q-11 -55 -44 -99z" />
    <glyph glyph-name="p" unicode="p" horiz-adv-x="565" 
d="M60 550h100v-90h30q14 46 52 74t91 28q59 0 106.5 -36.5t74 -101.5t26.5 -148t-26.5 -148t-73.5 -101.5t-106 -36.5q-52 0 -90 28t-54 74h-30v-292h-100v750zM372.5 105q31.5 25 49.5 69.5t18 101.5t-18 101.5t-49.5 69.5t-72.5 25q-40 0 -72 -24.5t-50 -69t-18 -100.5
q0 -57 18 -102.5t50 -70.5t72 -25q41 0 72.5 25z" />
    <glyph glyph-name="thorn" unicode="&#xfe;" horiz-adv-x="565" 
d="M60 800h100v-340h30q14 46 52 74t91 28q59 0 106.5 -36.5t74 -101.5t26.5 -148t-26.5 -148t-73.5 -101.5t-106 -36.5q-52 0 -90 28t-54 74h-30v-292h-100v1000zM178 175.5q18 -45.5 50 -70.5t72 -25q41 0 72.5 25t49.5 69.5t18 101.5t-18 101.5t-49.5 69.5t-72.5 25
q-40 0 -72 -24.5t-50 -69t-18 -100.5q0 -57 18 -102.5z" />
    <glyph glyph-name="q" unicode="q" horiz-adv-x="565" 
d="M505 550h-100v-90h-30q-14 46 -52 74t-91 28q-59 0 -106.5 -36.5t-74 -101.5t-26.5 -148t26.5 -148t73.5 -101.5t106 -36.5q52 0 90 28t54 74h30v-292h100v750zM192.5 105q-31.5 25 -49.5 69.5t-18 101.5t18 101.5t49.5 69.5t72.5 25q40 0 72 -24.5t50 -69t18 -100.5
q0 -57 -18 -102.5t-50 -70.5t-72 -25q-41 0 -72.5 25z" />
    <glyph glyph-name="r" unicode="r" horiz-adv-x="401" 
d="M60 550h100v-90h30q10 33 28.5 55.5t46.5 34.5t68 12q33 0 58 -5v-108q-17 10 -42 16.5t-49 6.5q-66 0 -103 -51t-37 -145v-276h-100v550z" />
    <glyph glyph-name="s" unicode="s" horiz-adv-x="514" 
d="M439 262q45 -33 45 -102q0 -49 -29 -89.5t-78.5 -63.5t-108.5 -23q-68 0 -122 31t-85 84.5t-31 117.5h100q0 -61 40.5 -102t104.5 -41q47 0 78 22t31 59q0 30 -22.5 47t-61.5 25l-104 23q-75 18 -115.5 56t-40.5 95q0 48 28 86t75 58.5t100 20.5q64 0 114 -29.5
t78.5 -80.5t28.5 -113h-100q0 57 -35.5 96t-92.5 39q-39 0 -67.5 -19.5t-28.5 -55.5q0 -23 14.5 -38.5t49.5 -27.5q45 -15 104 -26q86 -16 131 -49z" />
    <glyph glyph-name="scaron" unicode="&#x161;" horiz-adv-x="514" 
d="M439 262q45 -33 45 -102q0 -49 -29 -89.5t-78.5 -63.5t-108.5 -23q-68 0 -122 31t-85 84.5t-31 117.5h100q0 -61 40.5 -102t104.5 -41q47 0 78 22t31 59q0 30 -22.5 47t-61.5 25l-104 23q-75 18 -115.5 56t-40.5 95q0 48 28 86t75 58.5t100 20.5q64 0 114 -29.5
t78.5 -80.5t28.5 -113h-100q0 57 -35.5 96t-92.5 39q-39 0 -67.5 -19.5t-28.5 -55.5q0 -23 14.5 -38.5t49.5 -27.5q45 -15 104 -26q86 -16 131 -49zM206 653h102l131 147h-102l-80 -95l-80 95h-102z" />
    <glyph glyph-name="germandbls" unicode="&#xdf;" horiz-adv-x="700" 
d="M60 800h335q110 0 177.5 -53.5t67.5 -150.5q0 -64 -31 -116.5t-108 -52.5v-38q86 0 122.5 -53.5t36.5 -124.5q0 -101 -67.5 -156t-177.5 -55h-138v93h138q61 0 100 37t39 95t-38.5 95t-100.5 37h-138v93h118q61 0 100 36t39 93q0 56 -39 92t-100 36h-230v-707h-105v800z
" />
    <glyph glyph-name="t" unicode="t" horiz-adv-x="419" 
d="M82 690h100v-480h-100v480zM110.5 101.5q28.5 -47.5 79 -74.5t114.5 -27h95v90h-95q-53 0 -87.5 34t-34.5 86h-100q0 -61 28.5 -108.5zM10 550h383v-90h-383v90z" />
    <glyph glyph-name="u" unicode="u" horiz-adv-x="555" 
d="M495 0h-100v90h-30q-14 -46 -52.5 -74t-90.5 -28q-51 0 -91.5 27.5t-63 76.5t-22.5 112v346h100v-346q0 -55 31 -90.5t79 -35.5q41 0 72.5 25t49.5 69.5t18 101.5v276h100v-550z" />
    <glyph glyph-name="uacute" unicode="&#xfa;" horiz-adv-x="555" 
d="M495 0h-100v90h-30q-14 -46 -52.5 -74t-90.5 -28q-51 0 -91.5 27.5t-63 76.5t-22.5 112v346h100v-346q0 -55 31 -90.5t79 -35.5q41 0 72.5 25t49.5 69.5t18 101.5v276h100v-550zM400 816l-72 42l-72 -155l46 -27z" />
    <glyph glyph-name="ucircumflex" unicode="&#xfb;" horiz-adv-x="555" 
d="M495 0h-100v90h-30q-14 -46 -52.5 -74t-90.5 -28q-51 0 -91.5 27.5t-63 76.5t-22.5 112v346h100v-346q0 -55 31 -90.5t79 -35.5q41 0 72.5 25t49.5 69.5t18 101.5v276h100v-550zM227 800h102l131 -147h-102l-80 95l-80 -95h-102z" />
    <glyph glyph-name="udieresis" unicode="&#xfc;" horiz-adv-x="555" 
d="M495 0h-100v90h-30q-14 -46 -52.5 -74t-90.5 -28q-51 0 -91.5 27.5t-63 76.5t-22.5 112v346h100v-346q0 -55 31 -90.5t79 -35.5q41 0 72.5 25t49.5 69.5t18 101.5v276h100v-550zM161.33 799.99h83.3252v-99.9902h-83.3252v99.9902zM311.33 799.99h83.3252v-99.9902
h-83.3252v99.9902z" />
    <glyph glyph-name="ugrave" unicode="&#xf9;" horiz-adv-x="555" 
d="M495 0h-100v90h-30q-14 -46 -52.5 -74t-90.5 -28q-51 0 -91.5 27.5t-63 76.5t-22.5 112v346h100v-346q0 -55 31 -90.5t79 -35.5q41 0 72.5 25t49.5 69.5t18 101.5v276h100v-550zM166 816l72 42l72 -155l-46 -27z" />
    <glyph glyph-name="v" unicode="v" 
d="M10 550h105l123 -314q11 -29 14 -55t3 -66h40q0 41 3 67.5t14 53.5l123 314h105l-212 -550h-106z" />
    <glyph glyph-name="w" unicode="w" horiz-adv-x="855" 
d="M10 550h105l93 -314q9 -32 13 -60t4 -61h40q0 33 4 61t13 60l93 314h105l93 -314q9 -32 13 -60t4 -61h40q0 33 4 61t13 60l93 314h105l-182 -550h-106l-89 272q-11 33 -15.5 60.5t-4.5 61.5v41h-40v-41q0 -34 -4.5 -61t-15.5 -61l-90 -272h-106z" />
    <glyph glyph-name="x" unicode="x" 
d="M222 275l-212 275h105l123 -159q11 -15 14 -29t3 -35v-7h40v7q0 22 3 35.5t14 28.5l123 159h105l-212 -275l212 -275h-105l-123 159q-11 15 -14 29t-3 35v7h-40v-7q0 -21 -3 -35t-14 -29l-123 -159h-105z" />
    <glyph glyph-name="y" unicode="y" 
d="M222 0l-212 550h105l123 -314q11 -29 14 -55t3 -66h40q0 41 3 67.5t14 53.5l123 314h105l-212 -550v-200h-106v200z" />
    <glyph glyph-name="yacute" unicode="&#xfd;" 
d="M222 0l-212 550h105l123 -314q11 -29 14 -55t3 -66h40q0 41 3 67.5t14 53.5l123 314h105l-212 -550v-200h-106v200zM397 816l-72 42l-72 -155l46 -27z" />
    <glyph glyph-name="ydieresis" unicode="&#xff;" 
d="M222 0l-212 550h105l123 -314q11 -29 14 -55t3 -66h40q0 41 3 67.5t14 53.5l123 314h105l-212 -550v-200h-106v200zM158.33 799.99h83.3252v-99.9902h-83.3252v99.9902zM308.33 799.99h83.3252v-99.9902h-83.3252v99.9902z" />
    <glyph glyph-name="z" unicode="z" horiz-adv-x="468" 
d="M10 90l245 279q28 31 48.5 43.5t48.5 12.5v35h-322v90h428v-90l-241 -279q-28 -32 -49.5 -44t-50.5 -12v-35h341v-90h-448v90z" />
    <glyph glyph-name="zcaron" unicode="&#x17e;" horiz-adv-x="468" 
d="M10 90l245 279q28 31 48.5 43.5t48.5 12.5v35h-322v90h428v-90l-241 -279q-28 -32 -49.5 -44t-50.5 -12v-35h341v-90h-448v90zM183 653h102l131 147h-102l-80 -95l-80 95h-102z" />
    <glyph glyph-name="r_f.dlig" horiz-adv-x="790" 
d="M563 590v-590h-100v590h100zM597.5 676q34.5 34 87.5 34h95v90h-95q-64 0 -114.5 -27t-79 -74.5t-28.5 -108.5h100q0 52 34.5 86zM774 550v-90h-383v90h383zM60 550h100v-550h-100v550zM300 460q-67 0 -103.5 -46t-36.5 -138l-18 84l18 100h30q15 50 43 70t87 20h91v-90
h-111z" />
    <glyph glyph-name="r_t.dlig" horiz-adv-x="800" 
d="M60 550h100v-550h-100v550zM300 460q-67 0 -103.5 -46t-36.5 -138l-18 84l18 100h30q15 50 43 70t87 20h91v-90h-111zM463 690h100v-480h-100v480zM491.5 101.5q28.5 -47.5 79 -74.5t114.5 -27h95v90h-95q-53 0 -87.5 34t-34.5 86h-100q0 -61 28.5 -108.5zM391 550h383
v-90h-383v90z" />
    <glyph glyph-name="ordfeminine" unicode="&#xaa;" horiz-adv-x="327" 
d="M72.334 505.335q-27.1973 21.1211 -42.5322 58.7354t-15.335 85.6436q0 48.0303 15.624 85.6436q15.624 37.6143 43.1113 58.7363q27.4873 21.1211 62.7861 21.1211q29.5127 0 51.2129 -16.2031q21.7002 -16.2021 29.8018 -42.8213h17.3604v52.0801h57.8672v-318.271
h-57.8672v53.2383h-17.3604q-9.25879 -26.6191 -31.248 -42.8223q-21.9902 -16.2031 -52.0811 -16.2031q-34.1416 0 -61.3398 21.1221zM195.014 550.761q18.5176 14.4668 28.9336 40.7969q10.416 26.3291 10.416 59.3135q0 32.4062 -10.416 58.1572t-28.9336 39.9287
t-41.665 14.1777q-23.7256 0 -41.9541 -14.4678q-18.2275 -14.4668 -28.6445 -40.2178q-10.416 -25.751 -10.416 -58.7354t10.416 -58.7354q10.417 -25.751 28.6445 -40.2178q18.2285 -14.4668 41.9541 -14.4668q23.1475 0 41.665 14.4668z" />
    <glyph glyph-name="ordmasculine" unicode="&#xba;" horiz-adv-x="318" 
d="M84 506.5q-33 21.5 -51.5 59t-18.5 85.5q0 73 41 119t105 46q63 0 103.5 -46t40.5 -119t-40.5 -119.5t-104.5 -46.5q-42 0 -75 21.5zM96.5 569q24.5 -32 62.5 -32t62.5 32t24.5 82t-24.5 81.5t-62.5 31.5t-62.5 -31.5t-24.5 -81.5t24.5 -82z" />
    <glyph glyph-name="zero" unicode="0" horiz-adv-x="730" 
d="M197 38q-74 54 -115.5 148.5t-41.5 213.5t41.5 213.5t115.5 148.5t168 54t168 -54t115.5 -148.5t41.5 -213.5t-41.5 -213.5t-115.5 -148.5t-168 -54t-168 54zM478 119q50 42 78 115.5t28 165.5t-28 165.5t-78 115.5t-113 42t-113 -42t-78 -115.5t-28 -165.5t28 -165.5
t78 -115.5t113 -42t113 42z" />
    <glyph glyph-name="one" unicode="1" horiz-adv-x="245" 
d="M80 653h-70v92q36 0 64 18t36 37h75v-800h-105v653z" />
    <glyph glyph-name="two" unicode="2" horiz-adv-x="633" 
d="M86.5 171q26.5 36 64.5 65.5t106 72.5q75 48 121 83.5t78 83t32 105.5q0 65 -41.5 103.5t-104.5 38.5q-50 0 -88.5 -24t-59.5 -67t-21 -98h-106q0 79 35.5 143.5t98 101t138.5 36.5q70 0 128.5 -30.5t92 -84t33.5 -120.5q0 -75 -37 -134.5t-89 -101.5t-132 -94
q-54 -35 -84 -57.5t-50 -48t-20 -52.5h411v-92h-532v92q0 43 26.5 79z" />
    <glyph glyph-name="three" unicode="3" horiz-adv-x="602" 
d="M165 15q-63 30 -99 82.5t-36 117.5h102q0 -40 23.5 -72.5t63.5 -51t87 -18.5q72 0 119 39.5t47 104.5q0 70 -58.5 105.5t-154.5 35.5v94q89 0 146 37.5t57 101.5t-45 100t-114 36q-83 0 -127 -47.5t-44 -124.5h-102q0 74 35 133t97.5 93t140.5 34q67 0 126.5 -25.5
t96 -73.5t36.5 -113q0 -66 -42.5 -113t-121.5 -62v-36q84 -15 129 -59t45 -116q0 -66 -34.5 -119t-95.5 -83t-136 -30q-78 0 -141 30z" />
    <glyph glyph-name="four" unicode="4" horiz-adv-x="584" 
d="M419 211h-414v92q87 79 132 152t60.5 153t15.5 196h105q0 -174 -44 -305.5t-135 -155.5l1 -40h279v497h105v-800h-105v211z" />
    <glyph glyph-name="five" unicode="5" horiz-adv-x="651" 
d="M187 15.5q-64 30.5 -103.5 86t-43.5 128.5h104q12 -74 61 -113t120 -39q85 0 133 57t48 150q0 91 -42.5 145.5t-125.5 55.5q-70 1 -125.5 -33t-71.5 -89h-103l54 436h471v-92h-385l-25 -231h33q14 52 62.5 78t115.5 24q81 -2 136.5 -39.5t83 -101t27.5 -143.5
q0 -90 -35.5 -160.5t-100.5 -110t-150 -39.5q-74 0 -138 30.5z" />
    <glyph glyph-name="six" unicode="6" horiz-adv-x="652" 
d="M180.5 27.5q-67.5 42.5 -109 131.5t-41.5 221q0 124 41 223t114 155.5t167 56.5q65 0 119.5 -28.5t88.5 -76.5t37 -104h-100q-5 54 -48 85t-107 31q-101 0 -151 -75.5t-63 -190.5h30q21 57 67 83.5t124 26.5q91 0 152 -40t91 -106t30 -145q0 -83 -39.5 -149.5
t-106.5 -103.5t-147 -37q-81 0 -148.5 42.5zM465 132q52 53 52 143q0 60 -24 105t-66.5 69t-97.5 24q-86 0 -139 -53.5t-53 -144.5q0 -90 53 -143t139 -53q84 0 136 53z" />
    <glyph glyph-name="seven" unicode="7" horiz-adv-x="534" 
d="M404 650.5q23 17.5 54 17.5v40h-448v92h514v-92l-326 -708h-112l277 594q18 39 41 56.5z" />
    <glyph glyph-name="eight" unicode="8" horiz-adv-x="660" 
d="M176.5 14q-68.5 29 -107.5 79.5t-39 114.5q0 74 48.5 118t133.5 67v40q-72 13 -115.5 56t-43.5 113q0 61 35 109.5t98 76t144 27.5t144 -27.5t98 -76t35 -109.5q0 -71 -46 -114.5t-113 -54.5v-40q182 -52 182 -185q0 -64 -39 -114.5t-107.5 -79.5t-153.5 -29t-153.5 29z
M471 116q54 39 54 108q0 65 -53 99t-142 35t-142 -33t-53 -101q0 -69 54 -108t141 -39t141 39zM458.5 495q43.5 37 43.5 98q0 60 -43.5 94.5t-128.5 34.5q-79 0 -125.5 -35t-46.5 -93q0 -60 46.5 -98t125.5 -38q85 0 128.5 37z" />
    <glyph glyph-name="nine" unicode="9" horiz-adv-x="652" 
d="M187.5 13.5q-57.5 28.5 -93.5 76.5t-39 104h100q5 -53 52 -84.5t108 -31.5q95 0 144 74t63 192h-28q-21 -57 -67 -83.5t-124 -26.5q-91 0 -152 40t-91 106t-30 145q0 83 39.5 149.5t106.5 103.5t147 37q130 0 214.5 -95.5t84.5 -309.5q0 -137 -38 -232.5t-108 -144
t-166 -48.5q-65 0 -122.5 28.5zM462 380.5q53 53.5 53 144.5q0 90 -53 143t-139 53q-84 0 -136 -53t-52 -143q0 -60 24 -105t66.5 -69t97.5 -24q86 0 139 53.5z" />
    <glyph glyph-name="uni00B9" unicode="&#xb9;" horiz-adv-x="180" 
d="M80 710h-50v50q23 0 43.5 11.5t26.5 28.5h40v-300h-60v210z" />
    <glyph glyph-name="uni00B2" unicode="&#xb2;" horiz-adv-x="312" 
d="M59.5 589.5q19.5 15.5 57.5 33.5q45 23 68 42t23 50q0 17 -11.5 30.5t-34.5 13.5q-28 0 -41.5 -21.5t-13.5 -57.5h-60q0 57 34 94t84 37q44 0 73.5 -28.5t29.5 -72.5q0 -47 -30 -74.5t-80 -51.5q-23 -12 -31.5 -17.5t-8.5 -12.5l154 -2v-52h-232v52q0 22 19.5 37.5z" />
    <glyph glyph-name="uni00B3" unicode="&#xb3;" horiz-adv-x="288" 
d="M62 509q-32 27 -32 65h61q0 -16 14.5 -26.5t34.5 -10.5t34 11.5t14 29.5q0 21 -20.5 34t-55.5 13v52q33 0 52.5 12.5t19.5 32.5q0 17 -12.5 27.5t-30.5 10.5q-21 0 -35.5 -14.5t-14.5 -34.5h-61q0 44 32.5 74.5t79.5 30.5q42 0 72 -24.5t30 -57.5q0 -26 -19 -46.5
t-47 -25.5v-18q30 -6 50 -27t20 -48q0 -35 -31.5 -61t-76.5 -26q-46 0 -78 27z" />
    <glyph glyph-name="uni00A0" unicode="&#xa0;" horiz-adv-x="200" 
 />
    <glyph glyph-name="period" unicode="." horiz-adv-x="180" 
d="M40 120h100v-120h-100v120z" />
    <glyph glyph-name="comma" unicode="," horiz-adv-x="180" 
d="M40 120h100v-120l-59 -108h-71l30 108v120z" />
    <glyph glyph-name="colon" unicode=":" horiz-adv-x="180" 
d="M40 120h100v-120h-100v120zM40 550h100v-120h-100v120z" />
    <glyph glyph-name="semicolon" unicode=";" horiz-adv-x="180" 
d="M40 120h100v-120l-59 -108h-71l30 108v120zM40 550h100v-120h-100v120z" />
    <glyph glyph-name="ellipsis" unicode="&#x2026;" horiz-adv-x="480" 
d="M340 120h100v-120h-100v120zM40 120h100v-120h-100v120zM190 120h100v-120h-100v120z" />
    <glyph glyph-name="exclam" unicode="!" horiz-adv-x="220" 
d="M60 120h100v-120h-100v120zM60 800h100v-550h-100v550z" />
    <glyph glyph-name="exclamdown" unicode="&#xa1;" horiz-adv-x="220" 
d="M60 480h100v120h-100v-120zM60 -200h100v550h-100v-550z" />
    <glyph glyph-name="question" unicode="?" horiz-adv-x="586" 
d="M207 120h100v-120h-100v120zM224.5 292q17.5 34 42 57.5t66.5 56.5q39 30 62.5 51.5t39.5 52.5t16 71q0 65 -41.5 103.5t-104.5 38.5q-50 0 -88.5 -24t-59.5 -67t-21 -98h-106q0 79 35.5 143.5t98 101t138.5 36.5q71 0 129 -30.5t91.5 -85t33.5 -123.5q0 -55 -20.5 -95.5
t-49 -67.5t-74.5 -61q-54 -40 -79.5 -69.5t-25.5 -70.5h-100q0 46 17.5 80z" />
    <glyph glyph-name="questiondown" unicode="&#xbf;" horiz-adv-x="586" 
d="M379 479h-100v120h100v-120zM361.5 307q-17.5 -34 -42 -57.5t-66.5 -56.5q-39 -30 -62.5 -51.5t-39.5 -52.5t-16 -71q0 -65 41.5 -103.5t104.5 -38.5q50 0 88.5 24t59.5 67t21 98h106q0 -79 -35.5 -143.5t-98 -101t-138.5 -36.5q-71 0 -129 30.5t-91.5 85t-33.5 123.5
q0 55 20.5 95.5t49 67.5t74.5 61q54 40 79.5 69.5t25.5 70.5h100q0 -46 -17.5 -80z" />
    <glyph glyph-name="periodcentered" unicode="&#xb7;" horiz-adv-x="253" 
d="M40.1191 474.355h172.796v-207.355h-172.796v207.355z" />
    <glyph glyph-name="bullet" unicode="&#x2022;" horiz-adv-x="328" 
d="M19.998 459.992h199.993v-239.992h-199.993v239.992z" />
    <glyph glyph-name="asterisk" unicode="*" horiz-adv-x="382" 
d="M152 559l31 100l-71 -77l-33 -19l-39 68l33 19l101 23l-101 23l-33 19l39 68l33 -19l71 -77l-31 100v38h78v-38l-31 -100l71 77l33 19l39 -68l-33 -19l-101 -23l101 -23l33 -19l-39 -68l-33 19l-71 77l31 -100v-38h-78v38z" />
    <glyph glyph-name="numbersign" unicode="#" horiz-adv-x="718" 
d="M240 770h90l-140 -770h-90zM40 274h594v-76h-594v76zM80 552h598v-76h-598v76zM540 770h90l-140 -770h-90z" />
    <glyph glyph-name="slash" unicode="/" horiz-adv-x="310" 
d="M180 800h90l-140 -900h-90z" />
    <glyph glyph-name="backslash" unicode="\" horiz-adv-x="310" 
d="M130 800h-90l140 -900h90z" />
    <glyph glyph-name="hyphen" unicode="-" horiz-adv-x="406" 
d="M40 456h326v-92h-326v92z" />
    <glyph glyph-name="endash" unicode="&#x2013;" horiz-adv-x="650" 
d="M40 456h570v-92h-570v92z" />
    <glyph glyph-name="emdash" unicode="&#x2014;" horiz-adv-x="870" 
d="M40 456h790v-92h-790v92z" />
    <glyph glyph-name="underscore" unicode="_" horiz-adv-x="650" 
d="M40 -43h570v-92h-570v92z" />
    <glyph glyph-name="parenleft" unicode="(" horiz-adv-x="341" 
d="M72 66.5q-42 127.5 -42 262.5t42 264.5t120 206.5h119q-87 -77 -134 -206.5t-47 -264.5t47 -262.5t134 -201.5h-119q-78 74 -120 201.5z" />
    <glyph glyph-name="parenright" unicode=")" horiz-adv-x="341" 
d="M269 66.5q42 127.5 42 262.5t-42 264.5t-120 206.5h-119q87 -77 134 -206.5t47 -264.5t-47 -262.5t-134 -201.5h119q78 74 120 201.5z" />
    <glyph glyph-name="braceleft" unicode="{" horiz-adv-x="486" 
d="M156 244.5q-36 39.5 -90 39.5h-26v108h26q54 0 90 39.5t36 98.5v270h254v-86h-156v-240q0 -56 -34 -93t-86 -37v-12q52 0 86 -37t34 -93v-251h156v-86h-254v281q0 59 -36 98.5z" />
    <glyph glyph-name="braceright" unicode="}" horiz-adv-x="486" 
d="M330 244.5q36 39.5 90 39.5h26v108h-26q-54 0 -90 39.5t-36 98.5v270h-254v-86h156v-240q0 -56 34 -93t86 -37v-12q-52 0 -86 -37t-34 -93v-251h-156v-86h254v281q0 59 36 98.5z" />
    <glyph glyph-name="bracketleft" unicode="[" horiz-adv-x="344" 
d="M60 800h254v-86h-156v-763h156v-86h-254v935z" />
    <glyph glyph-name="bracketright" unicode="]" horiz-adv-x="344" 
d="M284 800h-254v-86h156v-763h-156v-86h254v935z" />
    <glyph glyph-name="quotesinglbase" unicode="&#x201a;" horiz-adv-x="130" 
d="M30 120h100v-120l-59 -108h-71l30 108v120z" />
    <glyph glyph-name="quotedblbase" unicode="&#x201e;" horiz-adv-x="280" 
d="M30 120h100v-120l-59 -108h-71l30 108v120zM180 120h100v-120l-59 -108h-71l30 108v120z" />
    <glyph glyph-name="quotedblleft" unicode="&#x201c;" horiz-adv-x="330" 
d="M290 571h-100v120l59 108h71l-30 -108v-120zM140 571h-100v120l59 108h71l-30 -108v-120z" />
    <glyph glyph-name="quotedblright" unicode="&#x201d;" horiz-adv-x="330" 
d="M40 800h100v-120l-59 -108h-71l30 108v120zM190 800h100v-120l-59 -108h-71l30 108v120z" />
    <glyph glyph-name="quoteleft" unicode="&#x2018;" horiz-adv-x="180" 
d="M140 572h-100v120l59 108h71l-30 -108v-120z" />
    <glyph glyph-name="quoteright" unicode="&#x2019;" horiz-adv-x="180" 
d="M40 800h100v-120l-59 -108h-71l30 108v120z" />
    <glyph glyph-name="guillemotleft" unicode="&#xab;" horiz-adv-x="690" 
d="M40 239v103l310 211v-112l-138 -92q-30 -20 -55.5 -29t-54.5 -9v-40q29 0 54 -8.5t56 -29.5l138 -93v-113zM340 239v103l310 211v-112l-138 -92q-30 -20 -55.5 -29t-54.5 -9v-40q29 0 54 -8.5t56 -29.5l138 -93v-113z" />
    <glyph glyph-name="guillemotright" unicode="&#xbb;" horiz-adv-x="690" 
d="M650 239v103l-310 211v-112l138 -92q30 -20 55.5 -29t54.5 -9v-40q-29 0 -54 -8.5t-56 -29.5l-138 -93v-113zM350 239v103l-310 211v-112l138 -92q30 -20 55.5 -29t54.5 -9v-40q-29 0 -54 -8.5t-56 -29.5l-138 -93v-113z" />
    <glyph glyph-name="guilsinglleft" unicode="&#x2039;" horiz-adv-x="390" 
d="M40 239v103l310 211v-112l-138 -92q-30 -20 -55.5 -29t-54.5 -9v-40q29 0 54 -8.5t56 -29.5l138 -93v-113z" />
    <glyph glyph-name="guilsinglright" unicode="&#x203a;" horiz-adv-x="390" 
d="M350 239v103l-310 211v-112l138 -92q30 -20 55.5 -29t54.5 -9v-40q-29 0 -54 -8.5t-56 -29.5l-138 -93v-113z" />
    <glyph glyph-name="quotedbl" unicode="&#x22;" horiz-adv-x="330" 
d="M40 680v120h100v-120l-15 -108h-70zM190 680v120h100v-120l-15 -108h-70z" />
    <glyph glyph-name="quotesingle" unicode="'" horiz-adv-x="180" 
d="M40 680v120h100v-120l-15 -108h-70z" />
    <glyph glyph-name="at" unicode="@" horiz-adv-x="970" 
d="M167 -148.5q-87 66.5 -120.5 183.5t-2.5 260q31 146 114 265t198.5 187t240.5 68q123 0 209 -68t118 -187t1 -265q-34 -157 -101 -243.5t-155 -88.5q-40 -1 -76 14t-55.5 52t-6.5 96h-20q-12 -52 -38 -76t-79 -24q-47 0 -78 34.5t-40 95.5t7 135q16 75 48.5 135.5
t75.5 95t87 34.5q41 0 55.5 -28.5t17.5 -89.5h20l21 93h98l-51 -240q-4 -19 -5 -26q-18 -85 -23 -124.5t6 -61.5t47 -22q44 0 81.5 61t62.5 178q26 121 7.5 219.5t-78.5 155t-154 56.5q-101 0 -195.5 -57t-163 -155.5t-94.5 -218.5q-25 -118 -3 -214.5t88 -152t166 -55.5
l-18 -88q-125 0 -212 66.5zM505 164q36 52 52 126q10 48 7 88.5t-18 64.5t-39 24q-36 0 -71.5 -51.5t-50.5 -125.5q-10 -48 -8 -89t16.5 -65t38.5 -24q37 0 73 52z" />
    <glyph glyph-name="ampersand" unicode="&#x26;" horiz-adv-x="683" 
d="M150 12q-62 27 -96 74.5t-34 106.5q0 75 54 136.5t152 108.5q95 45 140.5 88t45.5 110q0 40 -26 63.5t-71 23.5q-49 0 -79.5 -25.5t-30.5 -71.5q0 -50 22 -87t70 -92l25 -29l351 -418h-128l-319 379l-7 9q-43 51 -66 82.5t-38 69.5t-15 82q0 58 28.5 102t77.5 67.5
t109 23.5q58 0 104 -23t72 -63.5t26 -92.5q0 -78 -58.5 -139.5t-169.5 -125.5q-84 -48 -124 -89.5t-40 -88.5q0 -51 45 -83t123 -32q116 0 180 93t64 264h105q0 -138 -43 -240t-122 -156t-184 -54q-81 0 -143 27z" />
    <glyph glyph-name="section" unicode="&#xa7;" horiz-adv-x="600" 
d="M177.5 -32q-52.5 21 -82.5 58.5t-30 85.5h94q0 -34 38.5 -54.5t97.5 -20.5q55 0 90.5 20.5t35.5 54.5q0 26 -19.5 42.5t-48 25.5t-81.5 21q-71 15 -116.5 31.5t-78 52t-32.5 96.5q-1 28 19 64t57 63.5t86 29.5v-27q-69 26 -110.5 55.5t-41.5 83.5q0 48 28.5 85.5t79 58.5
t112.5 21q65 0 117.5 -21t82.5 -58.5t30 -85.5h-94q0 34 -38.5 54.5t-97.5 20.5q-55 0 -90.5 -20.5t-35.5 -54.5q0 -26 19.5 -42.5t48 -25.5t81.5 -21q71 -15 116.5 -31.5t78 -52t32.5 -96.5q1 -27 -18.5 -62t-56.5 -64.5t-87 -40.5v27l16 -6q42 -15 69.5 -28.5t47 -37
t19.5 -57.5q0 -48 -28.5 -85.5t-79 -58.5t-112.5 -21q-65 0 -117.5 21zM359 306.5q33 11.5 52.5 31t19.5 43.5q0 38 -43 62t-105 24q-39 0 -72 -11.5t-52.5 -31t-19.5 -43.5q0 -38 43 -62t105 -24q39 0 72 11.5z" />
    <glyph glyph-name="copyright" unicode="&#xa9;" horiz-adv-x="872" 
d="M345.5 225q-43.5 27 -68 74t-24.5 105t24.5 104.5t68 73.5t96.5 27q47 0 85 -22t60 -60.5t22 -86.5h-92q0 34 -21.5 58t-53.5 24q-40 0 -67 -34t-27 -84t27 -84.5t67 -34.5q32 0 53.5 24t21.5 59h92q0 -48 -22 -87t-60 -61t-85 -22q-53 0 -96.5 27zM228.5 38
q-92.5 54 -145.5 149t-53 213t53 213t145.5 149t207.5 54t207.5 -54t145.5 -149t53 -213t-53 -213t-145.5 -149t-207.5 -54t-207.5 54zM599 115.5q71 42.5 109.5 116.5t38.5 168t-38.5 168.5t-109.5 117t-163 42.5t-163 -42.5t-109.5 -117t-38.5 -168.5t38.5 -168
t109.5 -116.5t163 -42.5t163 42.5z" />
    <glyph glyph-name="registered" unicode="&#xae;" horiz-adv-x="872" 
d="M228.5 38q-92.5 54 -145.5 149t-53 213t53 213t145.5 149t207.5 54t207.5 -54t145.5 -149t53 -213t-53 -213t-145.5 -149t-207.5 -54t-207.5 54zM484.5 332.5q-17.5 13.5 -41.5 13.5v38q65 0 108.5 -28t43.5 -71v-82h-93v95q0 21 -17.5 34.5zM599 114.5
q71 42.5 109.5 117t38.5 168.5t-38.5 169t-109.5 117.5t-163 42.5t-163 -42.5t-109.5 -117.5t-38.5 -169t38.5 -168.5t109.5 -117t163 -42.5t163 42.5zM293 618h150q71 0 118 -38.5t47 -100.5q0 -63 -50.5 -98t-130.5 -35h-41v-143h-93v415zM494.5 439q18.5 18 18.5 40
q0 23 -20.5 38.5t-49.5 15.5h-57v-112h67q23 0 41.5 18z" />
    <glyph glyph-name="trademark" unicode="&#x2122;" horiz-adv-x="492" 
d="M79 800h46v-234h-46v234zM204 800v-40h-194v40h194zM283 690q-6 22 -6 33v16h-15l-22 61h56l41 -155q6 -21 6 -40h13q0 19 6 40l41 155h55l-22 -61h-15v-16q0 -15 -7 -41l-27 -116h-75l-27 116zM217 800h45v-234h-45v234zM436 566v234h46v-234h-46z" />
    <glyph glyph-name="degree" unicode="&#xb0;" horiz-adv-x="345" 
d="M77.5 601q-37.5 36 -37.5 90t37.5 89.5t94.5 35.5q58 0 95.5 -35.5t37.5 -89.5t-37.5 -90t-95.5 -36q-57 0 -94.5 36zM217.5 646.5q18.5 18.5 18.5 44.5t-18.5 44.5t-45.5 18.5q-26 0 -44.5 -18.5t-18.5 -44.5t18.5 -44.5t44.5 -18.5q27 0 45.5 18.5z" />
    <glyph glyph-name="bar" unicode="|" horiz-adv-x="225" 
d="M60 800h105v-935h-105v935z" />
    <glyph glyph-name="cent" unicode="&#xa2;" horiz-adv-x="544" 
d="M479.5 210q-32.5 -47 -83.5 -73.5t-111 -26.5q-75 0 -134.5 36.5t-92.5 101.5t-33 148t33.5 148t92.5 101.5t135 36.5q60 0 110.5 -25.5t82.5 -70.5t39 -102h-104q-6 47 -45 77.5t-94 30.5q-43 0 -77.5 -25t-53.5 -69.5t-19 -101.5t19.5 -101.5t53.5 -69.5t78 -25
q54 0 93.5 32.5t47.5 84.5h102q-7 -60 -39.5 -107zM230 800h85v-800h-85v800z" />
    <glyph glyph-name="dollar" unicode="$" horiz-adv-x="534" 
d="M220 800h85v-820h-85v820zM445 370q49 -46 49 -110q0 -49 -29 -89.5t-78.5 -63.5t-108.5 -23q-68 0 -122 31t-85 84.5t-31 117.5h100q0 -61 40.5 -102t104.5 -41q47 0 78 22t31 59q0 31 -23.5 52.5t-60.5 29.5l-104 23q-71 17 -113.5 69t-42.5 112q0 48 28 86t75 58.5
t100 20.5q64 0 114 -29.5t78.5 -80.5t28.5 -113h-100q0 57 -35.5 96t-92.5 39q-39 0 -67.5 -19.5t-28.5 -55.5q0 -28 13 -50.5t51 -35.5q38 -14 104 -26q78 -15 127 -61z" />
    <glyph glyph-name="Euro" unicode="&#x20ac;" horiz-adv-x="713" 
d="M564.5 69q-76.5 -79 -199.5 -79q-99 0 -175.5 52t-118 145.5t-41.5 212.5t41.5 212.5t118 145.5t175.5 52q123 0 200 -78.5t98 -215.5h-108q-17 96 -64 148.5t-126 52.5q-69 0 -121 -40t-80 -112t-28 -165t28 -165t80 -112t121 -40q152 0 190 201h108
q-22 -136 -98.5 -215zM-3 526h456v-92h-456v92zM-3 366h456v-92h-456v92z" />
    <glyph glyph-name="sterling" unicode="&#xa3;" horiz-adv-x="600" 
d="M145.5 171.5q47.5 62.5 47.5 160.5h-123v86h106q-1 4 -5 12q-16 43 -25.5 77.5t-9.5 72.5q0 65 36 117.5t99.5 82.5t142.5 30q33 0 64 -3t42 -7v-79q-37 10 -93 10q-58 0 -101.5 -19.5t-67.5 -54t-24 -77.5q0 -36 8.5 -68.5t23.5 -71.5l8 -22h246v-86h-229
q0 -100 -33 -162t-80 -84h-148q68 23 115.5 85.5zM30 86h499v-86h-499v86z" />
    <glyph glyph-name="yen" unicode="&#xa5;" horiz-adv-x="680" 
d="M288 104h-176v92h176v68h-176v92h135l-242 444h109l189 -355q12 -21 14.5 -39.5t2.5 -40.5v-5h40v5q0 22 2.5 40.5t14.5 39.5l189 355h109l-241 -444h135v-92h-176v-68h176v-92h-176v-104h-105v104z" />
    <glyph glyph-name="plus" unicode="+" horiz-adv-x="650" 
d="M274 695h102v-570h-102v570zM40 456h570v-92h-570v92z" />
    <glyph glyph-name="minus" unicode="&#x2212;" horiz-adv-x="650" 
d="M40 456h570v-92h-570v92z" />
    <glyph glyph-name="multiply" unicode="&#xd7;" horiz-adv-x="600" 
d="M559 579l-65 65l-403 -403l65 -65zM559 241l-403 403l-65 -65l403 -403z" />
    <glyph glyph-name="divide" unicode="&#xf7;" horiz-adv-x="650" 
d="M40 456h570v-92h-570v92zM272 279h100v-120h-100v120zM272 658h100v-120h-100v120z" />
    <glyph glyph-name="equal" unicode="=" horiz-adv-x="650" 
d="M40 506h570v-92h-570v92zM40 306h570v-92h-570v92z" />
    <glyph glyph-name="percent" unicode="%" horiz-adv-x="719" 
d="M485 800h90l-340 -800h-90zM114.5 469q-34.5 25 -54.5 67.5t-20 93.5t20 93.5t55 67.5t76 25t75 -25t54 -67.5t20 -93.5t-20 -93.5t-54.5 -67.5t-75.5 -25t-75.5 25zM234 552.5q16 28.5 16 77.5t-16 77.5t-44 28.5t-44 -28.5t-16 -77.5t16 -77.5t44 -28.5t44 28.5z
M453.5 9q-34.5 25 -54.5 67.5t-20 93.5t20 93.5t55 67.5t76 25t75 -25t54 -67.5t20 -93.5t-20 -93.5t-54.5 -67.5t-75.5 -25t-75.5 25zM573 92.5q16 28.5 16 77.5t-16 77.5t-44 28.5t-44 -28.5t-16 -77.5t16 -77.5t44 -28.5t44 28.5z" />
    <glyph glyph-name="perthousand" unicode="&#x2030;" horiz-adv-x="1049" 
d="M485 800h90l-340 -800h-90zM114.5 469q-34.5 25 -54.5 67.5t-20 93.5t20 93.5t55 67.5t76 25t75 -25t54 -67.5t20 -93.5t-20 -93.5t-54.5 -67.5t-75.5 -25t-75.5 25zM234 552.5q16 28.5 16 77.5t-16 77.5t-44 28.5t-44 -28.5t-16 -77.5t16 -77.5t44 -28.5t44 28.5z
M453.5 9q-34.5 25 -54.5 67.5t-20 93.5t20 93.5t55 67.5t76 25t75 -25t54 -67.5t20 -93.5t-20 -93.5t-54.5 -67.5t-75.5 -25t-75.5 25zM573 92.5q16 28.5 16 77.5t-16 77.5t-44 28.5t-44 -28.5t-16 -77.5t16 -77.5t44 -28.5t44 28.5zM783.5 9q-34.5 25 -54.5 67.5t-20 93.5
t20 93.5t55 67.5t76 25t75 -25t54 -67.5t20 -93.5t-20 -93.5t-54.5 -67.5t-75.5 -25t-75.5 25zM903 92.5q16 28.5 16 77.5t-16 77.5t-44 28.5t-44 -28.5t-16 -77.5t16 -77.5t44 -28.5t44 28.5z" />
    <glyph glyph-name="arrowup" unicode="&#x2191;" horiz-adv-x="657" 
d="M278 640h-30q0 -29 -11 -54t-35 -63l-88 -139l-74 49l256 367h65l256 -367l-74 -49l-89 139q-24 38 -35 63t-11 54h-30v-640h-100v640z" />
    <glyph glyph-name="uni2197" unicode="&#x2197;" horiz-adv-x="704" 
d="M40 153l452 452l-21 22q-20 -21 -45 -31t-70 -20l-160 -36l-18 87l440 79l46 -46l-78 -441l-87 18l35 161q10 44 20 69.5t30 45.5l-21 22l-452 -453z" />
    <glyph glyph-name="arrowright" unicode="&#x2192;" horiz-adv-x="880" 
d="M424 183l139 89q38 24 63 35t54 11v30h-640v92h640v30q-29 0 -54 11t-63 35l-139 88l49 74l367 -252v-65l-367 -252z" />
    <glyph glyph-name="uni2198" unicode="&#x2198;" horiz-adv-x="704" 
d="M40 635l452 -452l-21 -22q-20 21 -45 31t-70 20l-160 36l-18 -87l440 -79l46 46l-78 441l-87 -18l35 -161q10 -44 20 -69.5t30 -45.5l-21 -22l-452 453z" />
    <glyph glyph-name="arrowdown" unicode="&#x2193;" horiz-adv-x="600" 
d="M0 367l74 49l88 -139q24 -38 35 -63t11 -54h30v640h100v-640h30q0 29 11 54t35 63l89 139l74 -49l-256 -367h-65z" />
    <glyph glyph-name="uni2199" unicode="&#x2199;" horiz-adv-x="704" 
d="M664 635l-452 -452l21 -22q20 21 45 31t70 20l160 36l18 -87l-440 -79l-46 46l78 441l87 -18l-35 -161q-10 -44 -20 -69.5t-30 -45.5l21 -22l452 453z" />
    <glyph glyph-name="arrowleft" unicode="&#x2190;" horiz-adv-x="880" 
d="M456 183l-139 89q-38 24 -63 35t-54 11v30h640v92h-640v30q29 0 54 11t63 35l139 88l-49 74l-367 -252v-65l367 -252z" />
    <glyph glyph-name="uni2196" unicode="&#x2196;" horiz-adv-x="704" 
d="M664 153l-452 452l21 22q20 -21 45 -31t70 -20l160 -36l18 87l-440 79l-46 -46l78 -441l87 18l-35 161q-10 44 -20 69.5t-30 45.5l21 22l452 -453z" />
    <glyph glyph-name="uni0308" unicode="&#x308;" horiz-adv-x="0" 
d="M0.330078 799.99h83.3252v-99.9902h-83.3252v99.9902zM150.33 799.99h83.3252v-99.9902h-83.3252v99.9902z" />
    <glyph glyph-name="uni0307" unicode="&#x307;" horiz-adv-x="0" 
d="M0.330078 799.99h83.3252v-99.9902h-83.3252v99.9902z" />
    <glyph glyph-name="gravecomb" unicode="&#x300;" horiz-adv-x="0" 
d="M0 816l72 42l72 -155l-46 -27z" />
    <glyph glyph-name="acutecomb" unicode="&#x301;" horiz-adv-x="0" 
d="M144 816l-72 42l-72 -155l46 -27z" />
    <glyph glyph-name="uni030B" unicode="&#x30b;" horiz-adv-x="0" 
d="M144 816l-72 42l-72 -155l46 -27zM294 816l-72 42l-72 -155l46 -27z" />
    <glyph glyph-name="uni0302" unicode="&#x302;" horiz-adv-x="0" 
d="M131 800h102l131 -147h-102l-80 95l-80 -95h-102z" />
    <glyph glyph-name="uni030C" unicode="&#x30c;" horiz-adv-x="0" 
d="M131 653h102l131 147h-102l-80 -95l-80 95h-102z" />
    <glyph glyph-name="uni0306" unicode="&#x306;" horiz-adv-x="0" 
d="M77 663.5q-36 20.5 -56.5 56.5t-20.5 80h72q0 -39 24 -66t61 -27t61 27t24 66h72q0 -44 -20.5 -80t-56.5 -56.5t-80 -20.5t-80 20.5z" />
    <glyph glyph-name="uni030A" unicode="&#x30a;" horiz-adv-x="0" 
d="M26 675.5q-26 24.5 -26 62.5t26 62.5t66 24.5t66 -24.5t26 -62.5t-26 -62.5t-66 -24.5t-66 24.5zM113.5 716.5q8.5 8.5 8.5 21.5t-8.5 21.5t-21.5 8.5t-21.5 -8.5t-8.5 -21.5t8.5 -21.5t21.5 -8.5t21.5 8.5z" />
    <glyph glyph-name="tildecomb" unicode="&#x303;" horiz-adv-x="0" 
d="M26 703.5q-26 24.5 -26 62.5v34h62v-34q0 -13 8.5 -21.5t21.5 -8.5t22.5 7.5t20.5 22.5q14 20 29 31t41 11q40 0 66 -24.5t26 -62.5v-34h-62v34q0 13 -8.5 21.5t-21.5 8.5t-22.5 -7.5t-23.5 -23.5q-16 -20 -30.5 -30.5t-36.5 -10.5q-40 0 -66 24.5z" />
    <glyph glyph-name="uni0304" unicode="&#x304;" horiz-adv-x="0" 
d="M0 800h306v-72h-306v72z" />
    <glyph glyph-name="uni0327" unicode="&#x327;" horiz-adv-x="0" 
d="M71.5 -159.5q28.5 8.5 28.5 21.5t-28.5 21.5t-71.5 8.5l17 57q62 0 103.5 -25t41.5 -62t-46 -62t-116 -25v57q43 0 71.5 8.5zM17 -51l18 58h39l-18 -78z" />
    <glyph glyph-name="uni0328" unicode="&#x328;" horiz-adv-x="0" 
d="M42 -203.5q-42 21.5 -42 63.5q0 34 26 70t71 70h51q-76 -66 -76 -115q0 -19 9 -27.5t32 -12t72 -3.5v-67q-101 0 -143 21.5z" />
    <glyph glyph-name="dieresis" unicode="&#xa8;" horiz-adv-x="234" 
d="M0.330078 799.99h83.3252v-99.9902h-83.3252v99.9902zM150.33 799.99h83.3252v-99.9902h-83.3252v99.9902z" />
    <glyph glyph-name="dotaccent" unicode="&#x2d9;" horiz-adv-x="84" 
d="M0.330078 799.99h83.3252v-99.9902h-83.3252v99.9902z" />
    <glyph glyph-name="grave" unicode="`" horiz-adv-x="144" 
d="M0 816l72 42l72 -155l-46 -27z" />
    <glyph glyph-name="acute" unicode="&#xb4;" horiz-adv-x="144" 
d="M144 816l-72 42l-72 -155l46 -27z" />
    <glyph glyph-name="hungarumlaut" unicode="&#x2dd;" horiz-adv-x="294" 
d="M144 816l-72 42l-72 -155l46 -27zM294 816l-72 42l-72 -155l46 -27z" />
    <glyph glyph-name="circumflex" unicode="&#x2c6;" horiz-adv-x="364" 
d="M131 800h102l131 -147h-102l-80 95l-80 -95h-102z" />
    <glyph glyph-name="caron" unicode="&#x2c7;" horiz-adv-x="364" 
d="M131 653h102l131 147h-102l-80 -95l-80 95h-102z" />
    <glyph glyph-name="breve" unicode="&#x2d8;" horiz-adv-x="314" 
d="M77 663.5q-36 20.5 -56.5 56.5t-20.5 80h72q0 -39 24 -66t61 -27t61 27t24 66h72q0 -44 -20.5 -80t-56.5 -56.5t-80 -20.5t-80 20.5z" />
    <glyph glyph-name="ring" unicode="&#x2da;" horiz-adv-x="184" 
d="M26 675.5q-26 24.5 -26 62.5t26 62.5t66 24.5t66 -24.5t26 -62.5t-26 -62.5t-66 -24.5t-66 24.5zM113.5 716.5q8.5 8.5 8.5 21.5t-8.5 21.5t-21.5 8.5t-21.5 -8.5t-8.5 -21.5t8.5 -21.5t21.5 -8.5t21.5 8.5z" />
    <glyph glyph-name="tilde" unicode="&#x2dc;" horiz-adv-x="297" 
d="M26 703.5q-26 24.5 -26 62.5v34h62v-34q0 -13 8.5 -21.5t21.5 -8.5t22.5 7.5t20.5 22.5q14 20 29 31t41 11q40 0 66 -24.5t26 -62.5v-34h-62v34q0 13 -8.5 21.5t-21.5 8.5t-22.5 -7.5t-23.5 -23.5q-16 -20 -30.5 -30.5t-36.5 -10.5q-40 0 -66 24.5z" />
    <glyph glyph-name="macron" unicode="&#xaf;" horiz-adv-x="306" 
d="M0 800h306v-72h-306v72z" />
    <glyph glyph-name="cedilla" unicode="&#xb8;" horiz-adv-x="162" 
d="M71.5 -159.5q28.5 8.5 28.5 21.5t-28.5 21.5t-71.5 8.5l17 57q62 0 103.5 -25t41.5 -62t-46 -62t-116 -25v57q43 0 71.5 8.5zM17 -51l18 58h39l-18 -78z" />
    <glyph glyph-name="ogonek" unicode="&#x2db;" horiz-adv-x="185" 
d="M42 -203.5q-42 21.5 -42 63.5q0 34 26 70t71 70h51q-76 -66 -76 -115q0 -19 9 -27.5t32 -12t72 -3.5v-67q-101 0 -143 21.5z" />
    </font>
</defs>
</svg>
