<?xml version="1.0" standalone="no"?>
<!DOCTYPE svg PUBLIC "-//W3C//DTD SVG 1.1//EN" "http://www.w3.org/Graphics/SVG/1.1/DTD/svg11.dtd" >
<svg xmlns="http://www.w3.org/2000/svg" xmlns:xlink="http://www.w3.org/1999/xlink" version="1.1">
<metadata>
Created by FontForge 20190801 at Thu Dec 21 21:57:42 2017
 By Unknown
Copyright \(c\) 2017 by Ren_ Bieder. All rights reserved.
</metadata>
<defs>
<font id="Campton-ExtraLight" horiz-adv-x="624" >
  <font-face 
    font-family="Campton ExtraLight"
    font-weight="250"
    font-stretch="normal"
    units-per-em="1000"
    panose-1="2 11 0 4 2 1 2 2 2 3"
    ascent="770"
    descent="-230"
    x-height="453"
    cap-height="680"
    bbox="-355 -242 1429 952"
    underline-thickness="50"
    underline-position="-100"
    stemh="32"
    stemv="35"
    unicode-range="U+0020-FB02"
  />
<missing-glyph horiz-adv-x="870" 
d="M100 680h670v-680h-670v680zM700 129v481h-481zM170 547v-477h477z" />
    <glyph glyph-name="fi" unicode="fi" horiz-adv-x="595" 
d="M500 453v-453h-35v422h-291v-422h-34v422h-137v31h137v116c0 93 59 153 146 153c23 0 52 -4 84 -12l-7 -29c-26 5 -54 9 -75 9c-69 0 -114 -48 -114 -121v-116h326z" />
    <glyph glyph-name="fl" unicode="fl" horiz-adv-x="595" 
d="M465 710h35v-710h-35v422h-291v-422h-34v422h-137v31h137v116c0 93 59 153 146 153c23 0 52 -4 84 -12l-7 -30c-26 6 -54 10 -75 10c-69 0 -114 -48 -114 -121v-116h291v257z" />
    <glyph glyph-name=".notdef" horiz-adv-x="870" 
d="M100 680h670v-680h-670v680zM700 129v481h-481zM170 547v-477h477z" />
    <glyph glyph-name="A" unicode="A" horiz-adv-x="742" 
d="M666 0l-107 231h-375l-107 -231h-40l316 680h36l316 -680h-39zM198 263h347l-173 375z" />
    <glyph glyph-name="Aacute" unicode="&#xc1;" horiz-adv-x="742" 
d="M473 897l-89 -138h-36l85 138h40zM666 0l-107 231h-375l-107 -231h-40l316 680h36l316 -680h-39zM198 263h347l-173 375z" />
    <glyph glyph-name="Abreve" unicode="&#x102;" horiz-adv-x="742" 
d="M372 769c-67 0 -134 42 -134 128h30c0 -69 55 -101 104 -101s104 32 104 101h30c0 -86 -67 -128 -134 -128zM666 0l-107 231h-375l-107 -231h-40l316 680h36l316 -680h-39zM198 263h347l-173 375z" />
    <glyph glyph-name="uni01CD" unicode="&#x1cd;" horiz-adv-x="742" 
d="M393 761h-43l-125 139h38l109 -116l109 116h38zM666 0l-107 231h-375l-107 -231h-40l316 680h36l316 -680h-39zM198 263h347l-173 375z" />
    <glyph glyph-name="Acircumflex" unicode="&#xc2;" horiz-adv-x="742" 
d="M372 878l-109 -116h-38l125 139h43l126 -139h-38zM666 0l-107 231h-375l-107 -231h-40l316 680h36l316 -680h-39zM198 263h347l-173 375z" />
    <glyph glyph-name="Adieresis" unicode="&#xc4;" horiz-adv-x="742" 
d="M286 779c-18 0 -32 14 -32 32c0 17 14 31 32 31s32 -14 32 -31c0 -18 -14 -32 -32 -32zM458 779c-18 0 -32 14 -32 32c0 17 14 31 32 31s32 -14 32 -31c0 -18 -14 -32 -32 -32zM666 0l-107 231h-375l-107 -231h-40l316 680h36l316 -680h-39zM198 263h347l-173 375z" />
    <glyph glyph-name="Agrave" unicode="&#xc0;" horiz-adv-x="742" 
d="M398 759h-36l-89 138h40zM666 0l-107 231h-375l-107 -231h-40l316 680h36l316 -680h-39zM198 263h347l-173 375z" />
    <glyph glyph-name="Amacron" unicode="&#x100;" horiz-adv-x="742" 
d="M509 806v-29h-276v29h276zM666 0l-107 231h-375l-107 -231h-40l316 680h36l316 -680h-39zM198 263h347l-173 375z" />
    <glyph glyph-name="Aogonek" unicode="&#x104;" horiz-adv-x="742" 
d="M726 -166l3 -30c-9 -3 -25 -4 -38 -4c-70 0 -118 39 -118 98c0 55 44 91 88 113l-102 220h-375l-107 -231h-40l316 680h36l316 -680h-4c-46 -20 -95 -47 -95 -98c0 -44 35 -70 90 -70c11 0 21 1 30 2zM198 263h347l-173 375z" />
    <glyph glyph-name="Aring" unicode="&#xc5;" horiz-adv-x="742" 
d="M372 775c-52 0 -91 38 -91 89s39 88 91 88c51 0 90 -37 90 -88s-39 -89 -90 -89zM372 928c-37 0 -65 -29 -65 -64c0 -37 28 -65 65 -65c36 0 65 28 65 65c0 35 -29 64 -65 64zM666 0l-107 231h-375l-107 -231h-40l316 680h36l316 -680h-39zM198 263h347l-173 375z" />
    <glyph glyph-name="Atilde" unicode="&#xc3;" horiz-adv-x="742" 
d="M338 836c-38 28 -87 16 -87 -33h-30c0 81 81 93 129 60l38 -27c45 -31 88 -16 88 34h30c0 -81 -74 -100 -129 -61zM666 0l-107 231h-375l-107 -231h-40l316 680h36l316 -680h-39zM198 263h347l-173 375z" />
    <glyph glyph-name="AE" unicode="&#xc6;" horiz-adv-x="1090" 
d="M1014 647h-421v-291h381v-33h-381v-290h421v-33h-458v231h-300l-174 -231h-45l515 680h462v-33zM281 264h275v364z" />
    <glyph glyph-name="B" unicode="B" horiz-adv-x="694" 
d="M458 353c111 -19 169 -79 169 -168c0 -111 -100 -185 -252 -185h-266v680h265c130 0 215 -66 215 -167c0 -80 -45 -137 -131 -160zM372 648h-226v-284h208c127 0 199 54 199 147c0 82 -72 137 -181 137zM375 33c130 0 216 62 216 154c0 93 -79 146 -216 146h-229v-300
h229z" />
    <glyph glyph-name="C" unicode="C" horiz-adv-x="816" 
d="M425 21c143 0 249 82 280 200h39c-34 -138 -156 -235 -319 -235c-196 0 -353 157 -353 354s157 352 353 352c163 0 285 -95 319 -233h-39c-31 118 -137 199 -280 199c-176 0 -316 -140 -316 -318s140 -319 316 -319z" />
    <glyph glyph-name="Cacute" unicode="&#x106;" horiz-adv-x="816" 
d="M528 897l-89 -138h-36l85 138h40zM425 21c143 0 249 82 280 200h39c-34 -138 -156 -235 -319 -235c-196 0 -353 157 -353 354s157 352 353 352c163 0 285 -95 319 -233h-39c-31 118 -137 199 -280 199c-176 0 -316 -140 -316 -318s140 -319 316 -319z" />
    <glyph glyph-name="Ccaron" unicode="&#x10c;" horiz-adv-x="816" 
d="M448 761h-43l-125 139h38l109 -116l109 116h38zM425 21c143 0 249 82 280 200h39c-34 -138 -156 -235 -319 -235c-196 0 -353 157 -353 354s157 352 353 352c163 0 285 -95 319 -233h-39c-31 118 -137 199 -280 199c-176 0 -316 -140 -316 -318s140 -319 316 -319z" />
    <glyph glyph-name="Ccedilla" unicode="&#xc7;" horiz-adv-x="816" 
d="M425 21c143 0 249 82 280 200h39c-34 -138 -156 -235 -319 -235c-196 0 -353 157 -353 354s157 352 353 352c163 0 285 -95 319 -233h-39c-31 118 -137 199 -280 199c-176 0 -316 -140 -316 -318s140 -319 316 -319zM350 -218l48 136h35l-51 -136h-32z" />
    <glyph glyph-name="Cdotaccent" unicode="&#x10a;" horiz-adv-x="816" 
d="M427 779c-18 0 -32 14 -32 32c0 17 14 31 32 31s32 -14 32 -31c0 -18 -14 -32 -32 -32zM425 21c143 0 249 82 280 200h39c-34 -138 -156 -235 -319 -235c-196 0 -353 157 -353 354s157 352 353 352c163 0 285 -95 319 -233h-39c-31 118 -137 199 -280 199
c-176 0 -316 -140 -316 -318s140 -319 316 -319z" />
    <glyph glyph-name="D" unicode="D" horiz-adv-x="759" 
d="M333 680c211 0 354 -135 354 -334c0 -207 -143 -346 -354 -346h-224v680h224zM333 33c189 0 317 126 317 313c0 179 -128 301 -317 301h-187v-614h187z" />
    <glyph glyph-name="Eth" unicode="&#xd0;" horiz-adv-x="758" 
d="M333 680c211 0 354 -135 354 -334c0 -207 -143 -346 -354 -346h-224v324h-73v32h73v324h224zM333 33c189 0 317 126 317 313c0 179 -128 301 -317 301h-187v-291h207v-32h-207v-291h187z" />
    <glyph glyph-name="Dcaron" unicode="&#x10e;" horiz-adv-x="759" 
d="M371 761h-43l-125 139h38l109 -116l109 116h38zM333 680c211 0 354 -135 354 -334c0 -207 -143 -346 -354 -346h-224v680h224zM333 33c189 0 317 126 317 313c0 179 -128 301 -317 301h-187v-614h187z" />
    <glyph glyph-name="Dcroat" unicode="&#x110;" horiz-adv-x="758" 
d="M333 680c211 0 354 -135 354 -334c0 -207 -143 -346 -354 -346h-224v324h-73v32h73v324h224zM333 33c189 0 317 126 317 313c0 179 -128 301 -317 301h-187v-291h207v-32h-207v-291h187z" />
    <glyph glyph-name="E" unicode="E" horiz-adv-x="643" 
d="M567 647h-421v-291h381v-33h-381v-290h421v-33h-458v680h458v-33z" />
    <glyph glyph-name="Eacute" unicode="&#xc9;" horiz-adv-x="643" 
d="M439 897l-89 -138h-36l85 138h40zM567 647h-421v-291h381v-33h-381v-290h421v-33h-458v680h458v-33z" />
    <glyph glyph-name="Ecaron" unicode="&#x11a;" horiz-adv-x="643" 
d="M359 761h-43l-125 139h38l109 -116l109 116h38zM567 647h-421v-291h381v-33h-381v-290h421v-33h-458v680h458v-33z" />
    <glyph glyph-name="Ecircumflex" unicode="&#xca;" horiz-adv-x="643" 
d="M338 878l-109 -116h-38l125 139h43l126 -139h-38zM567 647h-421v-291h381v-33h-381v-290h421v-33h-458v680h458v-33z" />
    <glyph glyph-name="Edieresis" unicode="&#xcb;" horiz-adv-x="643" 
d="M252 779c-18 0 -32 14 -32 32c0 17 14 31 32 31s32 -14 32 -31c0 -18 -14 -32 -32 -32zM424 779c-18 0 -32 14 -32 32c0 17 14 31 32 31s32 -14 32 -31c0 -18 -14 -32 -32 -32zM567 647h-421v-291h381v-33h-381v-290h421v-33h-458v680h458v-33z" />
    <glyph glyph-name="Edotaccent" unicode="&#x116;" horiz-adv-x="643" 
d="M338 779c-18 0 -32 14 -32 32c0 17 14 31 32 31s32 -14 32 -31c0 -18 -14 -32 -32 -32zM567 647h-421v-291h381v-33h-381v-290h421v-33h-458v680h458v-33z" />
    <glyph glyph-name="Egrave" unicode="&#xc8;" horiz-adv-x="643" 
d="M364 759h-36l-89 138h40zM567 647h-421v-291h381v-33h-381v-290h421v-33h-458v680h458v-33z" />
    <glyph glyph-name="Emacron" unicode="&#x112;" horiz-adv-x="643" 
d="M475 806v-29h-276v29h276zM567 647h-421v-291h381v-33h-381v-290h421v-33h-458v680h458v-33z" />
    <glyph glyph-name="Eogonek" unicode="&#x118;" horiz-adv-x="643" 
d="M592 -166l3 -30c-9 -3 -25 -4 -38 -4c-70 0 -118 39 -118 98c0 47 32 80 68 102h-398v680h458v-33h-421v-291h381v-33h-381v-290h421v-33c-46 -20 -95 -47 -95 -98c0 -44 35 -70 90 -70c11 0 21 1 30 2z" />
    <glyph glyph-name="F" unicode="F" horiz-adv-x="604" 
d="M558 647h-412v-306h371v-34h-371v-307h-37v680h449v-33z" />
    <glyph glyph-name="G" unicode="G" horiz-adv-x="841" 
d="M418 312v33h324v-345h-32l-2 184c-46 -117 -146 -196 -286 -196c-197 0 -350 156 -350 351c0 198 159 353 355 353c150 0 282 -91 317 -229h-39c-33 119 -149 195 -278 195c-177 0 -318 -140 -318 -319c0 -175 135 -317 313 -317c168 0 272 127 283 290h-287z" />
    <glyph glyph-name="Gbreve" unicode="&#x11e;" horiz-adv-x="841" 
d="M427 769c-67 0 -134 42 -134 128h30c0 -69 55 -101 104 -101s104 32 104 101h30c0 -86 -67 -128 -134 -128zM418 312v33h324v-345h-32l-2 184c-46 -117 -146 -196 -286 -196c-197 0 -350 156 -350 351c0 198 159 353 355 353c150 0 282 -91 317 -229h-39
c-33 119 -149 195 -278 195c-177 0 -318 -140 -318 -319c0 -175 135 -317 313 -317c168 0 272 127 283 290h-287z" />
    <glyph glyph-name="Gcommaaccent" unicode="&#x122;" horiz-adv-x="841" 
d="M418 312v33h324v-345h-32l-2 184c-46 -117 -146 -196 -286 -196c-197 0 -350 156 -350 351c0 198 159 353 355 353c150 0 282 -91 317 -229h-39c-33 119 -149 195 -278 195c-177 0 -318 -140 -318 -319c0 -175 135 -317 313 -317c168 0 272 127 283 290h-287zM412 -77
c14 0 31 -10 31 -32c0 -15 -4 -22 -46 -121h-25l37 95c-20 2 -28 14 -28 28c0 17 13 30 31 30z" />
    <glyph glyph-name="Gdotaccent" unicode="&#x120;" horiz-adv-x="841" 
d="M427 779c-18 0 -32 14 -32 32c0 17 14 31 32 31s32 -14 32 -31c0 -18 -14 -32 -32 -32zM418 312v33h324v-345h-32l-2 184c-46 -117 -146 -196 -286 -196c-197 0 -350 156 -350 351c0 198 159 353 355 353c150 0 282 -91 317 -229h-39c-33 119 -149 195 -278 195
c-177 0 -318 -140 -318 -319c0 -175 135 -317 313 -317c168 0 272 127 283 290h-287z" />
    <glyph glyph-name="H" unicode="H" horiz-adv-x="755" 
d="M609 680h37v-680h-37v322h-463v-322h-37v680h37v-324h463v324z" />
    <glyph glyph-name="Hbar" unicode="&#x126;" horiz-adv-x="755" 
d="M694 545v-30h-48v-515h-37v322h-463v-322h-37v515h-49v30h49v135h37v-135h463v135h37v-135h48zM609 356v159h-463v-159h463z" />
    <glyph glyph-name="I" unicode="I" horiz-adv-x="255" 
d="M109 680h37v-680h-37v680z" />
    <glyph glyph-name="IJ" unicode="&#x132;" horiz-adv-x="848" 
d="M109 680h37v-680h-37v680zM749 680v-441c0 -158 -93 -251 -233 -251c-126 0 -212 74 -233 191h36c19 -97 90 -158 199 -158c116 0 195 81 195 218v441h36z" />
    <glyph glyph-name="Iacute" unicode="&#xcd;" horiz-adv-x="255" 
d="M189 897h40l-89 -138h-36zM109 680h37v-680h-37v680z" />
    <glyph glyph-name="Icircumflex" unicode="&#xce;" horiz-adv-x="255" 
d="M237 762l-109 116l-109 -116h-38l125 139h43l126 -139h-38zM109 680h37v-680h-37v680z" />
    <glyph glyph-name="Idieresis" unicode="&#xcf;" horiz-adv-x="255" 
d="M42 842c18 0 32 -14 32 -31c0 -18 -14 -32 -32 -32s-32 14 -32 32c0 17 14 31 32 31zM214 842c18 0 32 -14 32 -31c0 -18 -14 -32 -32 -32s-32 14 -32 32c0 17 14 31 32 31zM109 680h37v-680h-37v680z" />
    <glyph glyph-name="Idotaccent" unicode="&#x130;" horiz-adv-x="255" 
d="M128 780c-18 0 -32 14 -32 32c0 17 14 31 32 31s32 -14 32 -31c0 -18 -14 -32 -32 -32zM109 680h37v-680h-37v680z" />
    <glyph glyph-name="Igrave" unicode="&#xcc;" horiz-adv-x="255" 
d="M69 897l85 -138h-36l-89 138h40zM109 680h37v-680h-37v680z" />
    <glyph glyph-name="Imacron" unicode="&#x12a;" horiz-adv-x="255" 
d="M-11 806h276v-29h-276v29zM109 680h37v-680h-37v680z" />
    <glyph glyph-name="Iogonek" unicode="&#x12e;" horiz-adv-x="255" 
d="M171 -166l3 -30c-9 -3 -25 -4 -38 -4c-70 0 -118 39 -118 98c0 57 46 92 91 114v668h37v-680c-46 -20 -95 -47 -95 -98c0 -44 35 -70 90 -70c11 0 21 1 30 2z" />
    <glyph glyph-name="J" unicode="J" horiz-adv-x="593" 
d="M494 680v-441c0 -158 -93 -251 -233 -251c-126 0 -212 74 -233 191h36c19 -97 90 -158 199 -158c116 0 195 81 195 218v441h36z" />
    <glyph glyph-name="K" unicode="K" horiz-adv-x="700" 
d="M620 0l-327 339l-147 -149v-190h-37v680h37v-439l435 439h47l-310 -315l350 -365h-48z" />
    <glyph glyph-name="Kcommaaccent" unicode="&#x136;" horiz-adv-x="700" 
d="M318 365l350 -365h-48l-327 339l-147 -149v-190h-37v680h37v-439l435 439h47zM340 -77c14 0 31 -10 31 -32c0 -15 -4 -22 -46 -121h-25l37 95c-20 2 -28 14 -28 28c0 17 13 30 31 30z" />
    <glyph glyph-name="L" unicode="L" horiz-adv-x="577" 
d="M146 33h394v-33h-431v680h37v-647z" />
    <glyph glyph-name="Lacute" unicode="&#x139;" horiz-adv-x="577" 
d="M231 897l-89 -138h-36l85 138h40zM146 33h394v-33h-431v680h37v-647z" />
    <glyph glyph-name="Lcaron" unicode="&#x13d;" horiz-adv-x="577" 
d="M146 33h394v-33h-431v680h37v-647zM375 680l-20 -174h-29l13 174h36z" />
    <glyph glyph-name="Lcommaaccent" unicode="&#x13b;" horiz-adv-x="577" 
d="M146 33h394v-33h-431v680h37v-647zM319 -77c14 0 31 -10 31 -32c0 -15 -4 -22 -46 -121h-25l37 95c-20 2 -28 14 -28 28c0 17 13 30 31 30z" />
    <glyph glyph-name="Ldot" unicode="&#x13f;" horiz-adv-x="577" 
d="M146 33h394v-33h-431v680h37v-647zM360 275c-18 0 -32 14 -32 32c0 17 14 31 32 31s32 -14 32 -31c0 -18 -14 -32 -32 -32z" />
    <glyph glyph-name="Lslash" unicode="&#x141;" horiz-adv-x="577" 
d="M146 33h394v-33h-431v254l-81 -46v36l81 46v390h37v-369l160 91v-36l-160 -91v-242z" />
    <glyph glyph-name="M" unicode="M" horiz-adv-x="850" 
d="M740 680v-680h-36l1 606l-264 -453h-32l-265 455l2 -608h-37v680h33l283 -485l282 485h33z" />
    <glyph glyph-name="N" unicode="N" horiz-adv-x="778" 
d="M632 680h37v-680h-38l-485 621v-621h-37v680h37l486 -624v624z" />
    <glyph glyph-name="Nacute" unicode="&#x143;" horiz-adv-x="778" 
d="M490 897l-89 -138h-36l85 138h40zM632 680h37v-680h-38l-485 621v-621h-37v680h37l486 -624v624z" />
    <glyph glyph-name="Ncaron" unicode="&#x147;" horiz-adv-x="778" 
d="M410 761h-43l-125 139h38l109 -116l109 116h38zM632 680h37v-680h-38l-485 621v-621h-37v680h37l486 -624v624z" />
    <glyph glyph-name="Ncommaaccent" unicode="&#x145;" horiz-adv-x="778" 
d="M632 680h37v-680h-38l-485 621v-621h-37v680h37l486 -624v624zM362 -77c14 0 31 -10 31 -32c0 -15 -4 -22 -46 -121h-25l37 95c-20 2 -28 14 -28 28c0 17 13 30 31 30z" />
    <glyph glyph-name="Ntilde" unicode="&#xd1;" horiz-adv-x="778" 
d="M355 836c-38 28 -87 16 -87 -33h-30c0 81 81 93 129 60l38 -27c45 -31 88 -16 88 34h30c0 -81 -74 -100 -129 -61zM632 680h37v-680h-38l-485 621v-621h-37v680h37l486 -624v624z" />
    <glyph glyph-name="O" unicode="O" horiz-adv-x="853" 
d="M426 692c196 0 354 -156 354 -352s-158 -352 -354 -352s-354 156 -354 352s158 352 354 352zM426 22c177 0 318 142 318 318c0 177 -141 318 -318 318c-176 0 -317 -141 -317 -318c0 -176 141 -318 317 -318z" />
    <glyph glyph-name="Oacute" unicode="&#xd3;" horiz-adv-x="853" 
d="M487 897h40l-89 -138h-36zM426 692c196 0 354 -156 354 -352s-158 -352 -354 -352s-354 156 -354 352s158 352 354 352zM426 22c177 0 318 142 318 318c0 177 -141 318 -318 318c-176 0 -317 -141 -317 -318c0 -176 141 -318 317 -318z" />
    <glyph glyph-name="Ocircumflex" unicode="&#xd4;" horiz-adv-x="853" 
d="M535 762l-109 116l-109 -116h-38l125 139h43l126 -139h-38zM426 692c196 0 354 -156 354 -352s-158 -352 -354 -352s-354 156 -354 352s158 352 354 352zM426 22c177 0 318 142 318 318c0 177 -141 318 -318 318c-176 0 -317 -141 -317 -318c0 -176 141 -318 317 -318z
" />
    <glyph glyph-name="Odieresis" unicode="&#xd6;" horiz-adv-x="853" 
d="M340 842c18 0 32 -14 32 -31c0 -18 -14 -32 -32 -32s-32 14 -32 32c0 17 14 31 32 31zM512 842c18 0 32 -14 32 -31c0 -18 -14 -32 -32 -32s-32 14 -32 32c0 17 14 31 32 31zM426 692c196 0 354 -156 354 -352s-158 -352 -354 -352s-354 156 -354 352s158 352 354 352z
M426 22c177 0 318 142 318 318c0 177 -141 318 -318 318c-176 0 -317 -141 -317 -318c0 -176 141 -318 317 -318z" />
    <glyph glyph-name="Ograve" unicode="&#xd2;" horiz-adv-x="853" 
d="M367 897l85 -138h-36l-89 138h40zM426 692c196 0 354 -156 354 -352s-158 -352 -354 -352s-354 156 -354 352s158 352 354 352zM426 22c177 0 318 142 318 318c0 177 -141 318 -318 318c-176 0 -317 -141 -317 -318c0 -176 141 -318 317 -318z" />
    <glyph glyph-name="Ohungarumlaut" unicode="&#x150;" horiz-adv-x="853" 
d="M415 897h38l-86 -138h-34zM542 897h38l-86 -138h-34zM426 692c196 0 354 -156 354 -352s-158 -352 -354 -352s-354 156 -354 352s158 352 354 352zM426 22c177 0 318 142 318 318c0 177 -141 318 -318 318c-176 0 -317 -141 -317 -318c0 -176 141 -318 317 -318z" />
    <glyph glyph-name="Omacron" unicode="&#x14c;" horiz-adv-x="853" 
d="M287 806h276v-29h-276v29zM426 692c196 0 354 -156 354 -352s-158 -352 -354 -352s-354 156 -354 352s158 352 354 352zM426 22c177 0 318 142 318 318c0 177 -141 318 -318 318c-176 0 -317 -141 -317 -318c0 -176 141 -318 317 -318z" />
    <glyph glyph-name="Oslash" unicode="&#xd8;" horiz-adv-x="853" 
d="M666 600c70 -65 114 -157 114 -260c0 -196 -158 -352 -354 -352c-80 0 -155 26 -214 71l-61 -73l-25 20l61 73c-71 64 -115 157 -115 261c0 196 158 352 354 352c81 0 155 -27 215 -72l60 72l25 -21zM109 340c0 -92 39 -175 101 -233l409 487c-54 40 -120 64 -193 64
c-176 0 -317 -141 -317 -318zM426 22c177 0 318 142 318 318c0 92 -38 175 -100 233l-409 -487c53 -40 119 -64 191 -64z" />
    <glyph glyph-name="Otilde" unicode="&#xd5;" horiz-adv-x="853" 
d="M560 870c0 -81 -74 -100 -129 -61l-39 27c-38 28 -87 16 -87 -33h-30c0 81 81 93 129 60l38 -27c45 -31 88 -16 88 34h30zM426 692c196 0 354 -156 354 -352s-158 -352 -354 -352s-354 156 -354 352s158 352 354 352zM426 22c177 0 318 142 318 318
c0 177 -141 318 -318 318c-176 0 -317 -141 -317 -318c0 -176 141 -318 317 -318z" />
    <glyph glyph-name="OE" unicode="&#x152;" horiz-adv-x="1054" 
d="M978 647h-421v-291h381v-33h-381v-290h421v-33h-523c-225 0 -383 144 -383 340s158 340 383 340h523v-33zM455 34l65 1v610l-65 1c-205 0 -346 -129 -346 -306c0 -176 141 -306 346 -306z" />
    <glyph glyph-name="P" unicode="P" horiz-adv-x="635" 
d="M333 680c153 0 255 -87 255 -218c0 -132 -103 -219 -258 -219h-184v-243h-37v680h224zM332 276c132 0 220 74 220 186c0 111 -88 185 -220 185h-186v-371h186z" />
    <glyph glyph-name="Thorn" unicode="&#xde;" horiz-adv-x="635" 
d="M333 563c153 0 255 -87 255 -218s-103 -219 -258 -219h-184v-126h-37v680h37v-117h187zM332 159c132 0 220 75 220 186s-88 185 -220 185h-186v-371h186z" />
    <glyph glyph-name="Q" unicode="Q" horiz-adv-x="853" 
d="M780 340c0 -142 -83 -263 -203 -319l140 -176l-27 -24l-147 186c-37 -12 -76 -19 -117 -19c-196 0 -354 156 -354 352s158 352 354 352s354 -156 354 -352zM109 340c0 -176 141 -318 317 -318c177 0 318 142 318 318c0 177 -141 318 -318 318c-176 0 -317 -141 -317 -318
z" />
    <glyph glyph-name="R" unicode="R" horiz-adv-x="668" 
d="M573 0l-230 263h-197v-263h-37v680h236c152 0 254 -78 254 -208c0 -118 -83 -193 -210 -207l233 -265h-49zM146 647v-350h198c130 0 219 64 219 175c0 110 -89 175 -219 175h-198z" />
    <glyph glyph-name="Racute" unicode="&#x154;" horiz-adv-x="668" 
d="M422 897l-89 -138h-36l85 138h40zM573 0l-230 263h-197v-263h-37v680h236c152 0 254 -78 254 -208c0 -118 -83 -193 -210 -207l233 -265h-49zM146 647v-350h198c130 0 219 64 219 175c0 110 -89 175 -219 175h-198z" />
    <glyph glyph-name="Rcaron" unicode="&#x158;" horiz-adv-x="668" 
d="M342 761h-43l-125 139h38l109 -116l109 116h38zM573 0l-230 263h-197v-263h-37v680h236c152 0 254 -78 254 -208c0 -118 -83 -193 -210 -207l233 -265h-49zM146 647v-350h198c130 0 219 64 219 175c0 110 -89 175 -219 175h-198z" />
    <glyph glyph-name="Rcommaaccent" unicode="&#x156;" horiz-adv-x="668" 
d="M389 265l233 -265h-49l-230 263h-197v-263h-37v680h236c152 0 254 -78 254 -208c0 -118 -83 -193 -210 -207zM146 647v-350h198c130 0 219 64 219 175c0 110 -89 175 -219 175h-198zM316 -77c14 0 31 -10 31 -32c0 -15 -4 -22 -46 -121h-25l37 95c-20 2 -28 14 -28 28
c0 17 13 30 31 30z" />
    <glyph glyph-name="S" unicode="S" horiz-adv-x="655" 
d="M327 692c149 0 240 -70 257 -184h-36c-19 95 -90 152 -220 152c-117 0 -195 -57 -195 -149c0 -68 49 -113 142 -130l133 -26c114 -21 179 -80 179 -170c0 -120 -99 -197 -247 -197c-160 0 -257 78 -277 226h36c20 -126 100 -193 242 -193c126 0 209 63 209 161
c0 71 -52 122 -149 139l-140 27c-109 21 -166 78 -166 163c0 110 93 181 232 181z" />
    <glyph glyph-name="Sacute" unicode="&#x15a;" horiz-adv-x="655" 
d="M389 897h40l-89 -138h-36zM327 692c149 0 240 -70 257 -184h-36c-19 95 -90 152 -220 152c-117 0 -195 -57 -195 -149c0 -68 49 -113 142 -130l133 -26c114 -21 179 -80 179 -170c0 -120 -99 -197 -247 -197c-160 0 -257 78 -277 226h36c20 -126 100 -193 242 -193
c126 0 209 63 209 161c0 71 -52 122 -149 139l-140 27c-109 21 -166 78 -166 163c0 110 93 181 232 181z" />
    <glyph glyph-name="Scaron" unicode="&#x160;" horiz-adv-x="655" 
d="M437 900h38l-126 -139h-43l-125 139h38l109 -116zM327 692c149 0 240 -70 257 -184h-36c-19 95 -90 152 -220 152c-117 0 -195 -57 -195 -149c0 -68 49 -113 142 -130l133 -26c114 -21 179 -80 179 -170c0 -120 -99 -197 -247 -197c-160 0 -257 78 -277 226h36
c20 -126 100 -193 242 -193c126 0 209 63 209 161c0 71 -52 122 -149 139l-140 27c-109 21 -166 78 -166 163c0 110 93 181 232 181z" />
    <glyph glyph-name="Scedilla" unicode="&#x15e;" horiz-adv-x="655" 
d="M327 692c149 0 240 -70 257 -184h-36c-19 95 -90 152 -220 152c-117 0 -195 -57 -195 -149c0 -68 49 -113 142 -130l133 -26c114 -21 179 -80 179 -170c0 -120 -99 -197 -247 -197c-160 0 -257 78 -277 226h36c20 -126 100 -193 242 -193c126 0 209 63 209 161
c0 71 -52 122 -149 139l-140 27c-109 21 -166 78 -166 163c0 110 93 181 232 181zM363 -82l-51 -136h-32l48 136h35z" />
    <glyph glyph-name="Scommaaccent" unicode="&#x218;" horiz-adv-x="655" 
d="M327 692c149 0 240 -70 257 -184h-36c-19 95 -90 152 -220 152c-117 0 -195 -57 -195 -149c0 -68 49 -113 142 -130l133 -26c114 -21 179 -80 179 -170c0 -120 -99 -197 -247 -197c-160 0 -257 78 -277 226h36c20 -126 100 -193 242 -193c126 0 209 63 209 161
c0 71 -52 122 -149 139l-140 27c-109 21 -166 78 -166 163c0 110 93 181 232 181zM289 -230l37 95c-20 2 -28 14 -28 28c0 17 13 30 31 30c14 0 31 -10 31 -32c0 -15 -4 -22 -46 -121h-25z" />
    <glyph glyph-name="uni1E9E" unicode="&#x1e9e;" horiz-adv-x="717" 
d="M429 375c133 0 223 -75 223 -187c0 -119 -99 -200 -249 -200c-39 0 -83 5 -125 16v35c43 -14 86 -19 125 -19c128 0 212 67 212 167c0 93 -76 156 -193 156h-84v18l244 286h-262c-113 0 -187 -74 -187 -187v-460h-35v460c0 132 89 220 222 220h311v-24l-240 -281h38z" />
    <glyph glyph-name="T" unicode="T" horiz-adv-x="626" 
d="M596 680v-33h-265v-647h-36v647h-265v33h566z" />
    <glyph glyph-name="Tcaron" unicode="&#x164;" horiz-adv-x="626" 
d="M334 761h-43l-125 139h38l109 -116l109 116h38zM596 680v-33h-265v-647h-36v647h-265v33h566z" />
    <glyph glyph-name="uni0162" unicode="&#x162;" horiz-adv-x="626" 
d="M596 680v-33h-265v-647h-36v647h-265v33h566zM246 -218l48 136h35l-51 -136h-32z" />
    <glyph glyph-name="uni021A" unicode="&#x21a;" horiz-adv-x="626" 
d="M596 680v-33h-265v-647h-36v647h-265v33h566zM310 -77c14 0 31 -10 31 -32c0 -15 -4 -22 -46 -121h-25l37 95c-20 2 -28 14 -28 28c0 17 13 30 31 30z" />
    <glyph glyph-name="U" unicode="U" horiz-adv-x="761" 
d="M662 680v-400c0 -168 -112 -292 -281 -292s-282 124 -282 292v400h37v-400c0 -147 97 -259 245 -259c147 0 245 112 245 259v400h36z" />
    <glyph glyph-name="Uacute" unicode="&#xda;" horiz-adv-x="761" 
d="M442 897h40l-89 -138h-36zM662 680v-400c0 -168 -112 -292 -281 -292s-282 124 -282 292v400h37v-400c0 -147 97 -259 245 -259c147 0 245 112 245 259v400h36z" />
    <glyph glyph-name="Ucircumflex" unicode="&#xdb;" horiz-adv-x="761" 
d="M490 762l-109 116l-109 -116h-38l125 139h43l126 -139h-38zM662 680v-400c0 -168 -112 -292 -281 -292s-282 124 -282 292v400h37v-400c0 -147 97 -259 245 -259c147 0 245 112 245 259v400h36z" />
    <glyph glyph-name="Udieresis" unicode="&#xdc;" horiz-adv-x="761" 
d="M295 842c18 0 32 -14 32 -31c0 -18 -14 -32 -32 -32s-32 14 -32 32c0 17 14 31 32 31zM467 842c18 0 32 -14 32 -31c0 -18 -14 -32 -32 -32s-32 14 -32 32c0 17 14 31 32 31zM662 680v-400c0 -168 -112 -292 -281 -292s-282 124 -282 292v400h37v-400
c0 -147 97 -259 245 -259c147 0 245 112 245 259v400h36z" />
    <glyph glyph-name="Ugrave" unicode="&#xd9;" horiz-adv-x="761" 
d="M322 897l85 -138h-36l-89 138h40zM662 680v-400c0 -168 -112 -292 -281 -292s-282 124 -282 292v400h37v-400c0 -147 97 -259 245 -259c147 0 245 112 245 259v400h36z" />
    <glyph glyph-name="Uhungarumlaut" unicode="&#x170;" horiz-adv-x="761" 
d="M370 897h38l-86 -138h-34zM497 897h38l-86 -138h-34zM662 680v-400c0 -168 -112 -292 -281 -292s-282 124 -282 292v400h37v-400c0 -147 97 -259 245 -259c147 0 245 112 245 259v400h36z" />
    <glyph glyph-name="Umacron" unicode="&#x16a;" horiz-adv-x="761" 
d="M242 806h276v-29h-276v29zM662 680v-400c0 -168 -112 -292 -281 -292s-282 124 -282 292v400h37v-400c0 -147 97 -259 245 -259c147 0 245 112 245 259v400h36z" />
    <glyph glyph-name="Uogonek" unicode="&#x172;" horiz-adv-x="761" 
d="M626 680h36v-400c0 -127 -64 -230 -169 -271v-1c-53 -27 -101 -57 -101 -108c0 -44 34 -71 89 -71c12 0 21 1 30 2l3 -32c-9 -2 -24 -4 -38 -4c-70 0 -117 39 -117 99c0 40 24 71 55 96c-11 -1 -22 -2 -33 -2c-169 0 -282 124 -282 292v400h37v-400
c0 -147 97 -259 245 -259c147 0 245 112 245 259v400z" />
    <glyph glyph-name="Uring" unicode="&#x16e;" horiz-adv-x="761" 
d="M381 952c51 0 90 -37 90 -88s-39 -89 -90 -89c-52 0 -91 38 -91 89s39 88 91 88zM381 799c36 0 65 28 65 65c0 35 -29 64 -65 64c-37 0 -65 -29 -65 -64c0 -37 28 -65 65 -65zM662 680v-400c0 -168 -112 -292 -281 -292s-282 124 -282 292v400h37v-400
c0 -147 97 -259 245 -259c147 0 245 112 245 259v400h36z" />
    <glyph glyph-name="V" unicode="V" horiz-adv-x="728" 
d="M660 680h39l-317 -685h-36l-317 685h40l295 -638z" />
    <glyph glyph-name="W" unicode="W" horiz-adv-x="1020" 
d="M954 680h37l-237 -685h-35l-209 627l-209 -627h-35l-237 685h37l217 -631l210 631h34l210 -631z" />
    <glyph glyph-name="Wacute" unicode="&#x1e82;" horiz-adv-x="1020" 
d="M611 897l-89 -138h-36l85 138h40zM954 680h37l-237 -685h-35l-209 627l-209 -627h-35l-237 685h37l217 -631l210 631h34l210 -631z" />
    <glyph glyph-name="Wcircumflex" unicode="&#x174;" horiz-adv-x="1020" 
d="M510 878l-109 -116h-38l125 139h43l126 -139h-38zM954 680h37l-237 -685h-35l-209 627l-209 -627h-35l-237 685h37l217 -631l210 631h34l210 -631z" />
    <glyph glyph-name="Wdieresis" unicode="&#x1e84;" horiz-adv-x="1020" 
d="M424 779c-18 0 -32 14 -32 32c0 17 14 31 32 31s32 -14 32 -31c0 -18 -14 -32 -32 -32zM596 779c-18 0 -32 14 -32 32c0 17 14 31 32 31s32 -14 32 -31c0 -18 -14 -32 -32 -32zM954 680h37l-237 -685h-35l-209 627l-209 -627h-35l-237 685h37l217 -631l210 631h34
l210 -631z" />
    <glyph glyph-name="Wgrave" unicode="&#x1e80;" horiz-adv-x="1020" 
d="M536 759h-36l-89 138h40zM954 680h37l-237 -685h-35l-209 627l-209 -627h-35l-237 685h37l217 -631l210 631h34l210 -631z" />
    <glyph glyph-name="X" unicode="X" horiz-adv-x="655" 
d="M623 0h-44l-251 311l-252 -311h-44l272 339l-262 341h46l240 -313l239 313h45l-261 -341z" />
    <glyph glyph-name="Y" unicode="Y" horiz-adv-x="647" 
d="M588 680h41l-287 -427v-253h-37v253l-286 427h40l265 -393z" />
    <glyph glyph-name="Yacute" unicode="&#xdd;" horiz-adv-x="647" 
d="M425 897l-89 -138h-36l85 138h40zM588 680h41l-287 -427v-253h-37v253l-286 427h40l265 -393z" />
    <glyph glyph-name="Ycircumflex" unicode="&#x176;" horiz-adv-x="647" 
d="M324 878l-109 -116h-38l125 139h43l126 -139h-38zM588 680h41l-287 -427v-253h-37v253l-286 427h40l265 -393z" />
    <glyph glyph-name="Ydieresis" unicode="&#x178;" horiz-adv-x="647" 
d="M238 779c-18 0 -32 14 -32 32c0 17 14 31 32 31s32 -14 32 -31c0 -18 -14 -32 -32 -32zM410 779c-18 0 -32 14 -32 32c0 17 14 31 32 31s32 -14 32 -31c0 -18 -14 -32 -32 -32zM588 680h41l-287 -427v-253h-37v253l-286 427h40l265 -393z" />
    <glyph glyph-name="Ygrave" unicode="&#x1ef2;" horiz-adv-x="647" 
d="M350 759h-36l-89 138h40zM588 680h41l-287 -427v-253h-37v253l-286 427h40l265 -393z" />
    <glyph glyph-name="Z" unicode="Z" horiz-adv-x="655" 
d="M579 680v-23l-455 -624h455v-33h-508v23l458 624h-448v33h498z" />
    <glyph glyph-name="Zacute" unicode="&#x179;" horiz-adv-x="655" 
d="M429 897l-89 -138h-36l85 138h40zM579 680v-23l-455 -624h455v-33h-508v23l458 624h-448v33h498z" />
    <glyph glyph-name="Zcaron" unicode="&#x17d;" horiz-adv-x="655" 
d="M349 761h-43l-125 139h38l109 -116l109 116h38zM579 680v-23l-455 -624h455v-33h-508v23l458 624h-448v33h498z" />
    <glyph glyph-name="Zdotaccent" unicode="&#x17b;" horiz-adv-x="655" 
d="M328 779c-18 0 -32 14 -32 32c0 17 14 31 32 31s32 -14 32 -31c0 -18 -14 -32 -32 -32zM579 680v-23l-455 -624h455v-33h-508v23l458 624h-448v33h498z" />
    <glyph glyph-name="R.ss02" horiz-adv-x="673" 
d="M570 0l-378 263h-46v-263h-37v680h235c154 0 255 -78 255 -208c0 -131 -101 -209 -255 -209h-95l378 -263h-57zM146 647v-350h198c131 0 219 64 219 175c0 110 -88 175 -219 175h-198z" />
    <glyph glyph-name="Racute.ss02" horiz-adv-x="673" 
d="M427 897l-89 -138h-36l85 138h40zM570 0l-378 263h-46v-263h-37v680h235c154 0 255 -78 255 -208c0 -131 -101 -209 -255 -209h-95l378 -263h-57zM146 647v-350h198c131 0 219 64 219 175c0 110 -88 175 -219 175h-198z" />
    <glyph glyph-name="Rcaron.ss02" horiz-adv-x="673" 
d="M347 761h-43l-125 139h38l109 -116l109 116h38zM570 0l-378 263h-46v-263h-37v680h235c154 0 255 -78 255 -208c0 -131 -101 -209 -255 -209h-95l378 -263h-57zM146 647v-350h198c131 0 219 64 219 175c0 110 -88 175 -219 175h-198z" />
    <glyph glyph-name="Rcommaaccent.ss02" horiz-adv-x="673" 
d="M249 263l378 -263h-57l-378 263h-46v-263h-37v680h235c154 0 255 -78 255 -208c0 -131 -101 -209 -255 -209h-95zM146 647v-350h198c131 0 219 64 219 175c0 110 -88 175 -219 175h-198zM326 -77c14 0 31 -10 31 -32c0 -15 -4 -22 -46 -121h-25l37 95
c-20 2 -28 14 -28 28c0 17 13 30 31 30z" />
    <glyph glyph-name="Q.ss03" horiz-adv-x="853" 
d="M426 692c196 0 354 -156 354 -352s-158 -352 -354 -352s-354 156 -354 352s158 352 354 352zM426 22c177 0 318 142 318 318c0 177 -141 318 -318 318c-176 0 -317 -141 -317 -318c0 -176 141 -318 317 -318zM384 -93l325 -82l-9 -36c-109 27 -216 58 -324 90z" />
    <glyph glyph-name="a" unicode="a" 
d="M494 453h35v-453h-35v68c-45 -51 -107 -80 -184 -80c-132 0 -239 105 -239 239c0 133 107 238 239 238c77 0 139 -30 184 -81v69zM313 20c75 0 139 33 181 96v220c-42 63 -106 97 -181 97c-115 0 -207 -92 -207 -206c0 -115 92 -207 207 -207z" />
    <glyph glyph-name="aacute" unicode="&#xe1;" 
d="M423 687l-89 -138h-36l85 138h40zM494 453h35v-453h-35v68c-45 -51 -107 -80 -184 -80c-132 0 -239 105 -239 239c0 133 107 238 239 238c77 0 139 -30 184 -81v69zM313 20c75 0 139 33 181 96v220c-42 63 -106 97 -181 97c-115 0 -207 -92 -207 -206
c0 -115 92 -207 207 -207z" />
    <glyph glyph-name="abreve" unicode="&#x103;" 
d="M322 541c-67 0 -134 42 -134 128h30c0 -69 55 -101 104 -101s104 32 104 101h30c0 -86 -67 -128 -134 -128zM494 453h35v-453h-35v68c-45 -51 -107 -80 -184 -80c-132 0 -239 105 -239 239c0 133 107 238 239 238c77 0 139 -30 184 -81v69zM313 20c75 0 139 33 181 96
v220c-42 63 -106 97 -181 97c-115 0 -207 -92 -207 -206c0 -115 92 -207 207 -207z" />
    <glyph glyph-name="uni01CE" unicode="&#x1ce;" 
d="M343 543h-43l-125 139h38l109 -116l109 116h38zM494 453h35v-453h-35v68c-45 -51 -107 -80 -184 -80c-132 0 -239 105 -239 239c0 133 107 238 239 238c77 0 139 -30 184 -81v69zM313 20c75 0 139 33 181 96v220c-42 63 -106 97 -181 97c-115 0 -207 -92 -207 -206
c0 -115 92 -207 207 -207z" />
    <glyph glyph-name="acircumflex" unicode="&#xe2;" 
d="M322 659l-109 -116h-38l125 139h43l126 -139h-38zM494 453h35v-453h-35v68c-45 -51 -107 -80 -184 -80c-132 0 -239 105 -239 239c0 133 107 238 239 238c77 0 139 -30 184 -81v69zM313 20c75 0 139 33 181 96v220c-42 63 -106 97 -181 97c-115 0 -207 -92 -207 -206
c0 -115 92 -207 207 -207z" />
    <glyph glyph-name="adieresis" unicode="&#xe4;" 
d="M236 588c-18 0 -32 14 -32 32c0 17 14 31 32 31s32 -14 32 -31c0 -18 -14 -32 -32 -32zM408 588c-18 0 -32 14 -32 32c0 17 14 31 32 31s32 -14 32 -31c0 -18 -14 -32 -32 -32zM494 453h35v-453h-35v68c-45 -51 -107 -80 -184 -80c-132 0 -239 105 -239 239
c0 133 107 238 239 238c77 0 139 -30 184 -81v69zM313 20c75 0 139 33 181 96v220c-42 63 -106 97 -181 97c-115 0 -207 -92 -207 -206c0 -115 92 -207 207 -207z" />
    <glyph glyph-name="agrave" unicode="&#xe0;" 
d="M348 550h-36l-89 138h40zM494 453h35v-453h-35v68c-45 -51 -107 -80 -184 -80c-132 0 -239 105 -239 239c0 133 107 238 239 238c77 0 139 -30 184 -81v69zM313 20c75 0 139 33 181 96v220c-42 63 -106 97 -181 97c-115 0 -207 -92 -207 -206c0 -115 92 -207 207 -207z
" />
    <glyph glyph-name="amacron" unicode="&#x101;" 
d="M459 599v-29h-276v29h276zM494 453h35v-453h-35v68c-45 -51 -107 -80 -184 -80c-132 0 -239 105 -239 239c0 133 107 238 239 238c77 0 139 -30 184 -81v69zM313 20c75 0 139 33 181 96v220c-42 63 -106 97 -181 97c-115 0 -207 -92 -207 -206c0 -115 92 -207 207 -207z
" />
    <glyph glyph-name="aogonek" unicode="&#x105;" 
d="M553 -166l3 -30c-9 -3 -25 -4 -38 -4c-70 0 -118 39 -118 98c0 58 48 94 94 116v54c-45 -51 -107 -80 -184 -80c-132 0 -239 105 -239 239c0 133 107 238 239 238c77 0 139 -30 184 -81v69h35v-453h-1c-46 -20 -95 -47 -95 -98c0 -44 35 -70 90 -70c11 0 21 1 30 2z
M313 20c75 0 139 33 181 96v220c-42 63 -106 97 -181 97c-115 0 -207 -92 -207 -206c0 -115 92 -207 207 -207z" />
    <glyph glyph-name="aring" unicode="&#xe5;" 
d="M322 546c-52 0 -91 38 -91 89s39 88 91 88c51 0 90 -37 90 -88s-39 -89 -90 -89zM322 699c-37 0 -65 -29 -65 -64c0 -37 28 -65 65 -65c36 0 65 28 65 65c0 35 -29 64 -65 64zM494 453h35v-453h-35v68c-45 -51 -107 -80 -184 -80c-132 0 -239 105 -239 239
c0 133 107 238 239 238c77 0 139 -30 184 -81v69zM313 20c75 0 139 33 181 96v220c-42 63 -106 97 -181 97c-115 0 -207 -92 -207 -206c0 -115 92 -207 207 -207z" />
    <glyph glyph-name="atilde" unicode="&#xe3;" 
d="M309 627c-38 28 -87 16 -87 -33h-30c0 81 81 93 129 60l38 -27c45 -31 88 -16 88 34h30c0 -81 -74 -100 -129 -61zM494 453h35v-453h-35v68c-45 -51 -107 -80 -184 -80c-132 0 -239 105 -239 239c0 133 107 238 239 238c77 0 139 -30 184 -81v69zM313 20
c75 0 139 33 181 96v220c-42 63 -106 97 -181 97c-115 0 -207 -92 -207 -206c0 -115 92 -207 207 -207z" />
    <glyph glyph-name="ae" unicode="&#xe6;" horiz-adv-x="963" 
d="M673 465c137 0 227 -107 219 -250h-416c6 -108 84 -195 198 -195c76 0 137 32 160 86h39c-27 -73 -103 -118 -199 -118c-85 0 -155 41 -195 105c-55 -66 -136 -105 -230 -105c-109 0 -184 52 -184 139c0 71 55 116 163 116h213c0 111 -51 191 -165 191
c-79 0 -132 -41 -145 -97h-37c14 77 85 128 182 128c99 0 162 -51 187 -133c37 79 114 133 210 133zM673 434c-111 0 -189 -84 -196 -190h381c-2 112 -78 190 -185 190zM252 21c82 0 156 31 212 99c-13 28 -21 60 -23 93h-214c-87 0 -127 -34 -127 -86
c0 -65 60 -106 152 -106z" />
    <glyph glyph-name="b" unicode="b" 
d="M314 465c132 0 239 -105 239 -238s-107 -239 -239 -239c-77 0 -139 30 -184 81v-69h-35v710h35v-325c45 51 107 80 184 80zM311 20c115 0 207 93 207 207c0 115 -92 206 -207 206c-75 0 -139 -33 -181 -96v-220c42 -63 106 -97 181 -97z" />
    <glyph glyph-name="c" unicode="c" horiz-adv-x="581" 
d="M305 20c86 0 150 46 168 119h37c-20 -92 -100 -151 -205 -151c-138 0 -234 105 -234 239c0 133 96 238 234 238c105 0 185 -59 205 -150h-37c-18 72 -82 118 -168 118c-119 0 -199 -92 -199 -206s80 -207 199 -207z" />
    <glyph glyph-name="cacute" unicode="&#x107;" horiz-adv-x="581" 
d="M405 687l-89 -138h-36l85 138h40zM305 20c86 0 150 46 168 119h37c-20 -92 -100 -151 -205 -151c-138 0 -234 105 -234 239c0 133 96 238 234 238c105 0 185 -59 205 -150h-37c-18 72 -82 118 -168 118c-119 0 -199 -92 -199 -206s80 -207 199 -207z" />
    <glyph glyph-name="ccaron" unicode="&#x10d;" horiz-adv-x="581" 
d="M325 543h-43l-125 139h38l109 -116l109 116h38zM305 20c86 0 150 46 168 119h37c-20 -92 -100 -151 -205 -151c-138 0 -234 105 -234 239c0 133 96 238 234 238c105 0 185 -59 205 -150h-37c-18 72 -82 118 -168 118c-119 0 -199 -92 -199 -206s80 -207 199 -207z" />
    <glyph glyph-name="ccedilla" unicode="&#xe7;" horiz-adv-x="581" 
d="M305 20c86 0 150 46 168 119h37c-20 -92 -100 -151 -205 -151c-138 0 -234 105 -234 239c0 133 96 238 234 238c105 0 185 -59 205 -150h-37c-18 72 -82 118 -168 118c-119 0 -199 -92 -199 -206s80 -207 199 -207zM232 -218l48 136h35l-51 -136h-32z" />
    <glyph glyph-name="cdotaccent" unicode="&#x10b;" horiz-adv-x="581" 
d="M304 588c-18 0 -32 14 -32 32c0 17 14 31 32 31s32 -14 32 -31c0 -18 -14 -32 -32 -32zM305 20c86 0 150 46 168 119h37c-20 -92 -100 -151 -205 -151c-138 0 -234 105 -234 239c0 133 96 238 234 238c105 0 185 -59 205 -150h-37c-18 72 -82 118 -168 118
c-119 0 -199 -92 -199 -206s80 -207 199 -207z" />
    <glyph glyph-name="d" unicode="d" 
d="M494 710h35v-710h-35v69c-45 -51 -107 -81 -184 -81c-132 0 -239 106 -239 239s107 238 239 238c77 0 139 -29 184 -80v325zM313 20c75 0 139 34 181 97v220c-42 63 -106 96 -181 96c-115 0 -207 -91 -207 -206c0 -114 92 -207 207 -207z" />
    <glyph glyph-name="eth" unicode="&#xf0;" 
d="M372 614c105 -86 181 -220 181 -387c0 -135 -107 -239 -241 -239s-241 104 -241 239c0 133 107 238 241 238c77 0 145 -38 187 -95c-29 96 -88 175 -162 231l-173 -65l-9 28l153 57c-41 27 -86 48 -132 61l41 16c45 -14 88 -35 128 -63l76 28l9 -27zM312 20
c115 0 206 91 206 207c0 114 -91 206 -206 206s-206 -92 -206 -206c0 -116 91 -207 206 -207z" />
    <glyph glyph-name="dcaron" unicode="&#x10f;" 
d="M494 385v325h35v-710h-35v69c-45 -51 -107 -81 -184 -81c-132 0 -239 106 -239 239s107 238 239 238c77 0 139 -29 184 -80zM656 710h36l-20 -174h-29zM313 20c75 0 139 34 181 97v220c-42 63 -106 96 -181 96c-115 0 -207 -91 -207 -206c0 -114 92 -207 207 -207z" />
    <glyph glyph-name="dcroat" unicode="&#x111;" 
d="M569 621v-31h-40v-590h-35v69c-45 -51 -107 -81 -184 -81c-132 0 -239 106 -239 239s107 238 239 238c77 0 139 -29 184 -80v205h-217v31h217v89h35v-89h40zM313 20c75 0 139 34 181 97v220c-42 63 -106 96 -181 96c-115 0 -207 -91 -207 -206c0 -114 92 -207 207 -207z
" />
    <glyph glyph-name="e" unicode="e" horiz-adv-x="593" 
d="M303 465c137 0 227 -107 219 -250h-416c6 -108 84 -195 198 -195c76 0 137 32 160 86h39c-27 -73 -103 -118 -199 -118c-136 0 -233 105 -233 239c0 133 97 238 232 238zM303 434c-111 0 -189 -84 -196 -190h381c-2 112 -78 190 -185 190z" />
    <glyph glyph-name="eacute" unicode="&#xe9;" horiz-adv-x="593" 
d="M400 687l-89 -138h-36l85 138h40zM303 465c137 0 227 -107 219 -250h-416c6 -108 84 -195 198 -195c76 0 137 32 160 86h39c-27 -73 -103 -118 -199 -118c-136 0 -233 105 -233 239c0 133 97 238 232 238zM303 434c-111 0 -189 -84 -196 -190h381
c-2 112 -78 190 -185 190z" />
    <glyph glyph-name="ecaron" unicode="&#x11b;" horiz-adv-x="593" 
d="M320 543h-43l-125 139h38l109 -116l109 116h38zM303 465c137 0 227 -107 219 -250h-416c6 -108 84 -195 198 -195c76 0 137 32 160 86h39c-27 -73 -103 -118 -199 -118c-136 0 -233 105 -233 239c0 133 97 238 232 238zM303 434c-111 0 -189 -84 -196 -190h381
c-2 112 -78 190 -185 190z" />
    <glyph glyph-name="ecircumflex" unicode="&#xea;" horiz-adv-x="593" 
d="M299 659l-109 -116h-38l125 139h43l126 -139h-38zM303 465c137 0 227 -107 219 -250h-416c6 -108 84 -195 198 -195c76 0 137 32 160 86h39c-27 -73 -103 -118 -199 -118c-136 0 -233 105 -233 239c0 133 97 238 232 238zM303 434c-111 0 -189 -84 -196 -190h381
c-2 112 -78 190 -185 190z" />
    <glyph glyph-name="edieresis" unicode="&#xeb;" horiz-adv-x="593" 
d="M213 588c-18 0 -32 14 -32 32c0 17 14 31 32 31s32 -14 32 -31c0 -18 -14 -32 -32 -32zM385 588c-18 0 -32 14 -32 32c0 17 14 31 32 31s32 -14 32 -31c0 -18 -14 -32 -32 -32zM303 465c137 0 227 -107 219 -250h-416c6 -108 84 -195 198 -195c76 0 137 32 160 86h39
c-27 -73 -103 -118 -199 -118c-136 0 -233 105 -233 239c0 133 97 238 232 238zM303 434c-111 0 -189 -84 -196 -190h381c-2 112 -78 190 -185 190z" />
    <glyph glyph-name="edotaccent" unicode="&#x117;" horiz-adv-x="593" 
d="M299 588c-18 0 -32 14 -32 32c0 17 14 31 32 31s32 -14 32 -31c0 -18 -14 -32 -32 -32zM303 465c137 0 227 -107 219 -250h-416c6 -108 84 -195 198 -195c76 0 137 32 160 86h39c-27 -73 -103 -118 -199 -118c-136 0 -233 105 -233 239c0 133 97 238 232 238zM303 434
c-111 0 -189 -84 -196 -190h381c-2 112 -78 190 -185 190z" />
    <glyph glyph-name="egrave" unicode="&#xe8;" horiz-adv-x="593" 
d="M325 550h-36l-89 138h40zM303 465c137 0 227 -107 219 -250h-416c6 -108 84 -195 198 -195c76 0 137 32 160 86h39c-27 -73 -103 -118 -199 -118c-136 0 -233 105 -233 239c0 133 97 238 232 238zM303 434c-111 0 -189 -84 -196 -190h381c-2 112 -78 190 -185 190z" />
    <glyph glyph-name="emacron" unicode="&#x113;" horiz-adv-x="593" 
d="M436 599v-29h-276v29h276zM303 465c137 0 227 -107 219 -250h-416c6 -108 84 -195 198 -195c76 0 137 32 160 86h39c-27 -73 -103 -118 -199 -118c-136 0 -233 105 -233 239c0 133 97 238 232 238zM303 434c-111 0 -189 -84 -196 -190h381c-2 112 -78 190 -185 190z" />
    <glyph glyph-name="eogonek" unicode="&#x119;" horiz-adv-x="595" 
d="M303 465c137 0 227 -107 219 -250h-416c6 -108 84 -195 198 -195c76 0 137 32 160 86h39c-11 -29 -30 -54 -54 -73c-36 -35 -63 -55 -63 -104c0 -45 35 -72 90 -72c11 0 20 2 29 3l4 -30c-10 -3 -25 -5 -38 -5c-71 0 -118 39 -118 99c0 31 10 54 25 74
c-22 -7 -47 -10 -74 -10c-136 0 -233 105 -233 239c0 133 97 238 232 238zM303 434c-111 0 -189 -84 -196 -190h381c-2 112 -78 190 -185 190z" />
    <glyph glyph-name="f" unicode="f" horiz-adv-x="370" 
d="M288 690c-69 0 -114 -48 -114 -121v-116h187v-31h-187v-422h-34v422h-137v31h137v116c0 93 59 153 146 153c23 0 52 -4 84 -12l-7 -30c-26 6 -54 10 -75 10z" />
    <glyph glyph-name="g" unicode="g" 
d="M494 453h35v-491c0 -126 -87 -204 -223 -204c-120 0 -205 62 -225 153h37c17 -72 87 -121 188 -121c115 0 188 66 188 172v110c-47 -51 -115 -80 -192 -80c-133 0 -231 104 -231 236c0 134 98 237 231 237c77 0 145 -29 192 -81v69zM304 24c75 0 146 33 190 96v216
c-44 63 -115 98 -190 98c-115 0 -198 -91 -198 -206c0 -113 83 -204 198 -204z" />
    <glyph glyph-name="gbreve" unicode="&#x11f;" 
d="M317 541c-67 0 -134 42 -134 128h30c0 -69 55 -101 104 -101s104 32 104 101h30c0 -86 -67 -128 -134 -128zM494 453h35v-491c0 -126 -87 -204 -223 -204c-120 0 -205 62 -225 153h37c17 -72 87 -121 188 -121c115 0 188 66 188 172v110c-47 -51 -115 -80 -192 -80
c-133 0 -231 104 -231 236c0 134 98 237 231 237c77 0 145 -29 192 -81v69zM304 24c75 0 146 33 190 96v216c-44 63 -115 98 -190 98c-115 0 -198 -91 -198 -206c0 -113 83 -204 198 -204z" />
    <glyph glyph-name="gcommaaccent" unicode="&#x123;" horiz-adv-x="625" 
d="M311 578c-14 0 -31 10 -31 32c0 15 4 22 46 121h25l-37 -95c20 -2 28 -14 28 -28c0 -17 -13 -30 -31 -30zM494 453h35v-491c0 -126 -87 -204 -223 -204c-120 0 -205 62 -225 153h37c17 -72 87 -121 188 -121c115 0 188 66 188 172v110c-47 -51 -115 -80 -192 -80
c-133 0 -231 104 -231 236c0 134 98 237 231 237c77 0 145 -29 192 -81v69zM304 24c75 0 146 33 190 96v216c-44 63 -115 98 -190 98c-115 0 -198 -91 -198 -206c0 -113 83 -204 198 -204z" />
    <glyph glyph-name="gdotaccent" unicode="&#x121;" 
d="M317 588c-18 0 -32 14 -32 32c0 17 14 31 32 31s32 -14 32 -31c0 -18 -14 -32 -32 -32zM494 453h35v-491c0 -126 -87 -204 -223 -204c-120 0 -205 62 -225 153h37c17 -72 87 -121 188 -121c115 0 188 66 188 172v110c-47 -51 -115 -80 -192 -80c-133 0 -231 104 -231 236
c0 134 98 237 231 237c77 0 145 -29 192 -81v69zM304 24c75 0 146 33 190 96v216c-44 63 -115 98 -190 98c-115 0 -198 -91 -198 -206c0 -113 83 -204 198 -204z" />
    <glyph glyph-name="h" unicode="h" horiz-adv-x="575" 
d="M318 465c110 0 189 -70 189 -195v-270h-35v269c0 106 -66 164 -157 164c-74 0 -145 -34 -185 -94v-339h-35v710h35v-323c43 50 112 78 188 78z" />
    <glyph glyph-name="hbar" unicode="&#x127;" horiz-adv-x="567" 
d="M318 465c110 0 189 -70 189 -195v-270h-35v269c0 106 -66 164 -157 164c-74 0 -145 -34 -185 -94v-339h-35v587h-66v29h66v94h35v-94h197v-29h-197v-200c43 50 112 78 188 78z" />
    <glyph glyph-name="i" unicode="i" horiz-adv-x="251" 
d="M126 602c-17 0 -31 12 -31 29s14 30 31 30c16 0 30 -13 30 -30s-14 -29 -30 -29zM109 453h34v-453h-34v453z" />
    <glyph glyph-name="dotlessi" unicode="&#x131;" horiz-adv-x="267" 
d="M116 453h35v-453h-35v453z" />
    <glyph glyph-name="iacute" unicode="&#xed;" horiz-adv-x="267" 
d="M195 687h40l-89 -138h-36zM116 453h35v-453h-35v453z" />
    <glyph glyph-name="icircumflex" unicode="&#xee;" horiz-adv-x="267" 
d="M243 543l-109 116l-109 -116h-38l125 139h43l126 -139h-38zM116 453h35v-453h-35v453z" />
    <glyph glyph-name="idieresis" unicode="&#xef;" horiz-adv-x="267" 
d="M48 651c18 0 32 -14 32 -31c0 -18 -14 -32 -32 -32s-32 14 -32 32c0 17 14 31 32 31zM220 651c18 0 32 -14 32 -31c0 -18 -14 -32 -32 -32s-32 14 -32 32c0 17 14 31 32 31zM116 453h35v-453h-35v453z" />
    <glyph glyph-name="i.loclTRK" horiz-adv-x="251" 
d="M126 602c-17 0 -31 12 -31 29s14 30 31 30c16 0 30 -13 30 -30s-14 -29 -30 -29zM109 453h34v-453h-34v453z" />
    <glyph glyph-name="igrave" unicode="&#xec;" horiz-adv-x="267" 
d="M75 688l85 -138h-36l-89 138h40zM116 453h35v-453h-35v453z" />
    <glyph glyph-name="ij" unicode="&#x133;" horiz-adv-x="498" 
d="M126 602c-17 0 -31 12 -31 29s14 30 31 30c16 0 30 -13 30 -30s-14 -29 -30 -29zM373 602c-17 0 -30 12 -30 29s13 30 30 30s30 -13 30 -30s-13 -29 -30 -29zM109 453h34v-453h-34v453zM391 453v-522c0 -123 -39 -173 -147 -173l-2 32c83 0 114 39 114 139v524h35z" />
    <glyph glyph-name="imacron" unicode="&#x12b;" horiz-adv-x="267" 
d="M-5 599h276v-29h-276v29zM116 453h35v-453h-35v453z" />
    <glyph glyph-name="iogonek" unicode="&#x12f;" horiz-adv-x="266" 
d="M126 602c-17 0 -31 12 -31 29s14 30 31 30c16 0 30 -13 30 -30s-14 -29 -30 -29zM167 -166l3 -30c-9 -3 -25 -4 -38 -4c-70 0 -118 39 -118 98c0 58 48 94 95 116v439h34v-453h-1c-46 -20 -95 -47 -95 -98c0 -44 35 -70 90 -70c11 0 21 1 30 2z" />
    <glyph glyph-name="j" unicode="j" horiz-adv-x="247" 
d="M122 602c-17 0 -30 12 -30 29s13 30 30 30s30 -13 30 -30s-13 -29 -30 -29zM140 453v-522c0 -123 -39 -173 -147 -173l-2 32c83 0 114 39 114 139v524h35z" />
    <glyph glyph-name="k" unicode="k" horiz-adv-x="547" 
d="M472 0l-234 239l-108 -97v-142h-35v710h35v-522l297 265h47l-211 -191l257 -262h-48z" />
    <glyph glyph-name="kcommaaccent" unicode="&#x137;" horiz-adv-x="547" 
d="M263 262l257 -262h-48l-234 239l-108 -97v-142h-35v710h35v-522l297 265h47zM277 -77c14 0 31 -10 31 -32c0 -15 -4 -22 -46 -121h-25l37 95c-20 2 -28 14 -28 28c0 17 13 30 31 30z" />
    <glyph glyph-name="l" unicode="l" horiz-adv-x="226" 
d="M95 710h35v-710h-35v710z" />
    <glyph glyph-name="lacute" unicode="&#x13a;" horiz-adv-x="226" 
d="M190 944h40l-89 -138h-36zM95 710h35v-710h-35v710z" />
    <glyph glyph-name="lcaron" unicode="&#x13e;" horiz-adv-x="226" 
d="M95 710h35v-710h-35v710zM231 710h36l-20 -174h-29z" />
    <glyph glyph-name="lcommaaccent" unicode="&#x13c;" horiz-adv-x="226" 
d="M95 710h35v-710h-35v710zM69 -230l37 95c-20 2 -28 14 -28 28c0 17 13 30 31 30c14 0 31 -10 31 -32c0 -15 -4 -22 -46 -121h-25z" />
    <glyph glyph-name="ldot" unicode="&#x140;" horiz-adv-x="246" 
d="M95 710h35v-710h-35v710zM222 277c-18 0 -32 14 -32 32c0 17 14 31 32 31s32 -14 32 -31c0 -18 -14 -32 -32 -32z" />
    <glyph glyph-name="lslash" unicode="&#x142;" horiz-adv-x="226" 
d="M208 427v-38l-78 -45v-344h-35v324l-77 -44v39l77 44v347h35v-327z" />
    <glyph glyph-name="m" unicode="m" horiz-adv-x="899" 
d="M653 465c110 0 178 -60 178 -185v-280h-35v280c0 105 -55 153 -144 153c-74 0 -137 -35 -175 -102c3 -15 4 -32 4 -50v-281h-35v281c0 105 -56 152 -144 152c-72 0 -134 -33 -172 -94v-339h-35v453h35v-65c39 49 98 77 173 77c78 0 136 -30 162 -94c41 59 107 94 188 94z
" />
    <glyph glyph-name="n" unicode="n" horiz-adv-x="575" 
d="M318 465c110 0 189 -70 189 -195v-270h-35v269c0 106 -66 164 -157 164c-74 0 -145 -34 -185 -94v-339h-35v453h35v-66c43 50 112 78 188 78z" />
    <glyph glyph-name="nacute" unicode="&#x144;" horiz-adv-x="575" 
d="M402 687l-89 -138h-36l85 138h40zM318 465c110 0 189 -70 189 -195v-270h-35v269c0 106 -66 164 -157 164c-74 0 -145 -34 -185 -94v-339h-35v453h35v-66c43 50 112 78 188 78z" />
    <glyph glyph-name="ncaron" unicode="&#x148;" horiz-adv-x="575" 
d="M322 543h-43l-125 139h38l109 -116l109 116h38zM318 465c110 0 189 -70 189 -195v-270h-35v269c0 106 -66 164 -157 164c-74 0 -145 -34 -185 -94v-339h-35v453h35v-66c43 50 112 78 188 78z" />
    <glyph glyph-name="ncommaaccent" unicode="&#x146;" horiz-adv-x="575" 
d="M318 465c110 0 189 -70 189 -195v-270h-35v269c0 106 -66 164 -157 164c-74 0 -145 -34 -185 -94v-339h-35v453h35v-66c43 50 112 78 188 78zM303 -77c14 0 31 -10 31 -32c0 -15 -4 -22 -46 -121h-25l37 95c-20 2 -28 14 -28 28c0 17 13 30 31 30z" />
    <glyph glyph-name="ntilde" unicode="&#xf1;" horiz-adv-x="575" 
d="M288 627c-38 28 -87 16 -87 -33h-30c0 81 81 93 129 60l38 -27c45 -31 88 -16 88 34h30c0 -81 -74 -100 -129 -61zM318 465c110 0 189 -70 189 -195v-270h-35v269c0 106 -66 164 -157 164c-74 0 -145 -34 -185 -94v-339h-35v453h35v-66c43 50 112 78 188 78z" />
    <glyph glyph-name="o" unicode="o" 
d="M312 465c136 0 241 -103 241 -238s-105 -239 -241 -239s-241 104 -241 239s105 238 241 238zM312 20c116 0 206 90 206 207c0 116 -90 206 -206 206c-115 0 -206 -90 -206 -206c0 -117 91 -207 206 -207z" />
    <glyph glyph-name="oacute" unicode="&#xf3;" 
d="M373 687h40l-89 -138h-36zM312 465c136 0 241 -103 241 -238s-105 -239 -241 -239s-241 104 -241 239s105 238 241 238zM312 20c116 0 206 90 206 207c0 116 -90 206 -206 206c-115 0 -206 -90 -206 -206c0 -117 91 -207 206 -207z" />
    <glyph glyph-name="ocircumflex" unicode="&#xf4;" 
d="M421 543l-109 116l-109 -116h-38l125 139h43l126 -139h-38zM312 465c136 0 241 -103 241 -238s-105 -239 -241 -239s-241 104 -241 239s105 238 241 238zM312 20c116 0 206 90 206 207c0 116 -90 206 -206 206c-115 0 -206 -90 -206 -206c0 -117 91 -207 206 -207z" />
    <glyph glyph-name="odieresis" unicode="&#xf6;" 
d="M226 651c18 0 32 -14 32 -31c0 -18 -14 -32 -32 -32s-32 14 -32 32c0 17 14 31 32 31zM398 651c18 0 32 -14 32 -31c0 -18 -14 -32 -32 -32s-32 14 -32 32c0 17 14 31 32 31zM312 465c136 0 241 -103 241 -238s-105 -239 -241 -239s-241 104 -241 239s105 238 241 238z
M312 20c116 0 206 90 206 207c0 116 -90 206 -206 206c-115 0 -206 -90 -206 -206c0 -117 91 -207 206 -207z" />
    <glyph glyph-name="ograve" unicode="&#xf2;" 
d="M253 688l85 -138h-36l-89 138h40zM312 465c136 0 241 -103 241 -238s-105 -239 -241 -239s-241 104 -241 239s105 238 241 238zM312 20c116 0 206 90 206 207c0 116 -90 206 -206 206c-115 0 -206 -90 -206 -206c0 -117 91 -207 206 -207z" />
    <glyph glyph-name="ohungarumlaut" unicode="&#x151;" 
d="M301 688h38l-86 -138h-34zM428 688h38l-86 -138h-34zM312 465c136 0 241 -103 241 -238s-105 -239 -241 -239s-241 104 -241 239s105 238 241 238zM312 20c116 0 206 90 206 207c0 116 -90 206 -206 206c-115 0 -206 -90 -206 -206c0 -117 91 -207 206 -207z" />
    <glyph glyph-name="omacron" unicode="&#x14d;" 
d="M173 599h276v-29h-276v29zM312 465c136 0 241 -103 241 -238s-105 -239 -241 -239s-241 104 -241 239s105 238 241 238zM312 20c116 0 206 90 206 207c0 116 -90 206 -206 206c-115 0 -206 -90 -206 -206c0 -117 91 -207 206 -207z" />
    <glyph glyph-name="oslash" unicode="&#xf8;" 
d="M472 408c50 -44 81 -108 81 -181c0 -135 -105 -239 -241 -239c-57 0 -108 18 -149 49l-37 -45l-22 19l37 45c-43 43 -70 103 -70 171c0 135 105 238 241 238c51 0 98 -15 137 -40l37 44l21 -19zM106 227c0 -57 22 -108 57 -145l264 317c-32 22 -72 34 -115 34
c-115 0 -206 -90 -206 -206zM312 20c116 0 206 90 206 207c0 62 -26 117 -68 155l-265 -319c35 -27 79 -43 127 -43z" />
    <glyph glyph-name="otilde" unicode="&#xf5;" 
d="M467 661c0 -81 -74 -100 -129 -61l-39 27c-38 28 -87 16 -87 -33h-30c0 81 81 93 129 60l38 -27c45 -31 88 -16 88 34h30zM312 465c136 0 241 -103 241 -238s-105 -239 -241 -239s-241 104 -241 239s105 238 241 238zM312 20c116 0 206 90 206 207
c0 116 -90 206 -206 206c-115 0 -206 -90 -206 -206c0 -117 91 -207 206 -207z" />
    <glyph glyph-name="oe" unicode="&#x153;" horiz-adv-x="1041" 
d="M751 465c137 0 227 -107 219 -250h-416c6 -108 84 -195 198 -195c76 0 137 32 160 86h39c-27 -73 -103 -118 -199 -118c-103 0 -183 60 -217 147c-35 -87 -120 -147 -223 -147c-136 0 -241 104 -241 239s105 238 241 238c103 0 188 -59 224 -147c33 87 113 147 215 147z
M751 434c-111 0 -189 -84 -196 -190h381c-2 112 -78 190 -185 190zM312 20c116 0 206 90 206 207c0 116 -90 206 -206 206c-115 0 -206 -90 -206 -206c0 -117 91 -207 206 -207z" />
    <glyph glyph-name="p" unicode="p" 
d="M314 465c132 0 239 -105 239 -238c0 -134 -107 -239 -239 -239c-77 0 -139 29 -184 80v-298h-35v683h35v-69c45 51 107 81 184 81zM311 20c115 0 207 92 207 207c0 114 -92 207 -207 207c-75 0 -139 -35 -181 -98v-220c42 -63 106 -96 181 -96z" />
    <glyph glyph-name="thorn" unicode="&#xfe;" 
d="M314 465c132 0 239 -105 239 -238c0 -134 -107 -239 -239 -239c-77 0 -139 29 -184 80v-298h-35v940h35v-326c45 51 107 81 184 81zM311 20c115 0 207 92 207 207c0 114 -92 207 -207 207c-75 0 -139 -35 -181 -98v-220c42 -63 106 -96 181 -96z" />
    <glyph glyph-name="q" unicode="q" 
d="M494 453h35v-683h-35v298c-45 -51 -107 -80 -184 -80c-132 0 -239 105 -239 239c0 133 107 238 239 238c77 0 139 -30 184 -81v69zM313 20c75 0 139 33 181 96v220c-42 63 -106 98 -181 98c-115 0 -207 -93 -207 -207c0 -115 92 -207 207 -207z" />
    <glyph glyph-name="r" unicode="r" horiz-adv-x="341" 
d="M130 358c41 67 111 110 188 110v-33c-78 -1 -149 -51 -188 -131v-304h-35v453h35v-95z" />
    <glyph glyph-name="racute" unicode="&#x155;" horiz-adv-x="341" 
d="M291 687l-89 -138h-36l85 138h40zM130 358c41 67 111 110 188 110v-33c-78 -1 -149 -51 -188 -131v-304h-35v453h35v-95z" />
    <glyph glyph-name="rcaron" unicode="&#x159;" horiz-adv-x="341" 
d="M211 543h-43l-125 139h38l109 -116l109 116h38zM130 358c41 67 111 110 188 110v-33c-78 -1 -149 -51 -188 -131v-304h-35v453h35v-95z" />
    <glyph glyph-name="rcommaaccent" unicode="&#x157;" horiz-adv-x="341" 
d="M130 358c41 67 111 110 188 110v-33c-78 -1 -149 -51 -188 -131v-304h-35v453h35v-95zM112 -77c14 0 31 -10 31 -32c0 -15 -4 -22 -46 -121h-25l37 95c-20 2 -28 14 -28 28c0 17 13 30 31 30z" />
    <glyph glyph-name="s" unicode="s" horiz-adv-x="540" 
d="M99 131c17 -68 72 -112 179 -112c89 0 149 37 149 99c0 53 -43 83 -98 91l-106 17c-80 13 -135 45 -135 116c0 76 70 124 175 124s188 -48 195 -137h-33c-11 69 -67 106 -161 106c-86 0 -141 -35 -141 -92c0 -45 31 -74 107 -86l95 -16c63 -10 136 -36 136 -123
c0 -81 -75 -130 -185 -130c-126 0 -194 56 -211 143h34z" />
    <glyph glyph-name="sacute" unicode="&#x15b;" horiz-adv-x="540" 
d="M331 687h40l-89 -138h-36zM99 131c17 -68 72 -112 179 -112c89 0 149 37 149 99c0 53 -43 83 -98 91l-106 17c-80 13 -135 45 -135 116c0 76 70 124 175 124s188 -48 195 -137h-33c-11 69 -67 106 -161 106c-86 0 -141 -35 -141 -92c0 -45 31 -74 107 -86l95 -16
c63 -10 136 -36 136 -123c0 -81 -75 -130 -185 -130c-126 0 -194 56 -211 143h34z" />
    <glyph glyph-name="scaron" unicode="&#x161;" horiz-adv-x="540" 
d="M379 682h38l-126 -139h-43l-125 139h38l109 -116zM99 131c17 -68 72 -112 179 -112c89 0 149 37 149 99c0 53 -43 83 -98 91l-106 17c-80 13 -135 45 -135 116c0 76 70 124 175 124s188 -48 195 -137h-33c-11 69 -67 106 -161 106c-86 0 -141 -35 -141 -92
c0 -45 31 -74 107 -86l95 -16c63 -10 136 -36 136 -123c0 -81 -75 -130 -185 -130c-126 0 -194 56 -211 143h34z" />
    <glyph glyph-name="scedilla" unicode="&#x15f;" horiz-adv-x="540" 
d="M99 131c17 -68 72 -112 179 -112c89 0 149 37 149 99c0 53 -43 83 -98 91l-106 17c-80 13 -135 45 -135 116c0 76 70 124 175 124s188 -48 195 -137h-33c-11 69 -67 106 -161 106c-86 0 -141 -35 -141 -92c0 -45 31 -74 107 -86l95 -16c63 -10 136 -36 136 -123
c0 -81 -75 -130 -185 -130c-126 0 -194 56 -211 143h34zM294 -82l-51 -136h-32l48 136h35z" />
    <glyph glyph-name="scommaaccent" unicode="&#x219;" horiz-adv-x="540" 
d="M99 131c17 -68 72 -112 179 -112c89 0 149 37 149 99c0 53 -43 83 -98 91l-106 17c-80 13 -135 45 -135 116c0 76 70 124 175 124s188 -48 195 -137h-33c-11 69 -67 106 -161 106c-86 0 -141 -35 -141 -92c0 -45 31 -74 107 -86l95 -16c63 -10 136 -36 136 -123
c0 -81 -75 -130 -185 -130c-126 0 -194 56 -211 143h34zM217 -230l37 95c-20 2 -28 14 -28 28c0 17 13 30 31 30c14 0 31 -10 31 -32c0 -15 -4 -22 -46 -121h-25z" />
    <glyph glyph-name="germandbls" unicode="&#xdf;" horiz-adv-x="597" 
d="M384 356c107 -14 176 -72 176 -173c0 -109 -80 -188 -235 -188c-23 0 -49 2 -77 7v32c26 -5 53 -8 79 -8c136 0 198 70 198 158c0 102 -84 149 -189 149h-34v28c108 7 172 81 172 158c0 69 -49 139 -156 141c-107 3 -197 -66 -197 -197v-463h-34v463
c0 146 98 229 225 229c124 0 197 -77 197 -171c0 -71 -43 -133 -125 -165z" />
    <glyph glyph-name="t" unicode="t" horiz-adv-x="418" 
d="M360 35l6 -34c-32 -9 -62 -13 -85 -13c-103 0 -145 50 -145 171v263h-135v31h135v171h35v-171h174v-31h-174v-263c0 -99 32 -138 112 -138c23 0 52 6 77 14z" />
    <glyph glyph-name="tcaron" unicode="&#x165;" horiz-adv-x="418" 
d="M296 712l-20 -174h-29l13 174h36zM360 35l6 -34c-32 -9 -62 -13 -85 -13c-103 0 -145 50 -145 171v263h-135v31h135v171h35v-171h174v-31h-174v-263c0 -99 32 -138 112 -138c23 0 52 6 77 14z" />
    <glyph glyph-name="uni0163" unicode="&#x163;" horiz-adv-x="418" 
d="M360 35l6 -34c-32 -9 -62 -13 -85 -13c-103 0 -145 50 -145 171v263h-135v31h135v171h35v-171h174v-31h-174v-263c0 -99 32 -138 112 -138c23 0 52 6 77 14zM191 -218l48 136h35l-51 -136h-32z" />
    <glyph glyph-name="uni021B" unicode="&#x21b;" horiz-adv-x="418" 
d="M360 35l6 -34c-32 -9 -62 -13 -85 -13c-103 0 -145 50 -145 171v263h-135v31h135v171h35v-171h174v-31h-174v-263c0 -99 32 -138 112 -138c23 0 52 6 77 14zM237 -77c14 0 31 -10 31 -32c0 -15 -4 -22 -46 -121h-25l37 95c-20 2 -28 14 -28 28c0 17 13 30 31 30z" />
    <glyph glyph-name="u" unicode="u" horiz-adv-x="575" 
d="M445 453h35v-453h-35v66c-43 -50 -111 -78 -188 -78c-110 0 -189 71 -189 195v270h35v-269c0 -106 66 -164 158 -164c73 0 144 34 184 95v338z" />
    <glyph glyph-name="uacute" unicode="&#xfa;" horiz-adv-x="575" 
d="M380 687l-89 -138h-36l85 138h40zM445 453h35v-453h-35v66c-43 -50 -111 -78 -188 -78c-110 0 -189 71 -189 195v270h35v-269c0 -106 66 -164 158 -164c73 0 144 34 184 95v338z" />
    <glyph glyph-name="ucircumflex" unicode="&#xfb;" horiz-adv-x="575" 
d="M279 659l-109 -116h-38l125 139h43l126 -139h-38zM445 453h35v-453h-35v66c-43 -50 -111 -78 -188 -78c-110 0 -189 71 -189 195v270h35v-269c0 -106 66 -164 158 -164c73 0 144 34 184 95v338z" />
    <glyph glyph-name="udieresis" unicode="&#xfc;" horiz-adv-x="575" 
d="M193 588c-18 0 -32 14 -32 32c0 17 14 31 32 31s32 -14 32 -31c0 -18 -14 -32 -32 -32zM365 588c-18 0 -32 14 -32 32c0 17 14 31 32 31s32 -14 32 -31c0 -18 -14 -32 -32 -32zM445 453h35v-453h-35v66c-43 -50 -111 -78 -188 -78c-110 0 -189 71 -189 195v270h35v-269
c0 -106 66 -164 158 -164c73 0 144 34 184 95v338z" />
    <glyph glyph-name="ugrave" unicode="&#xf9;" horiz-adv-x="575" 
d="M305 550h-36l-89 138h40zM445 453h35v-453h-35v66c-43 -50 -111 -78 -188 -78c-110 0 -189 71 -189 195v270h35v-269c0 -106 66 -164 158 -164c73 0 144 34 184 95v338z" />
    <glyph glyph-name="uhungarumlaut" unicode="&#x171;" horiz-adv-x="575" 
d="M306 688l-86 -138h-34l82 138h38zM433 688l-86 -138h-34l82 138h38zM445 453h35v-453h-35v66c-43 -50 -111 -78 -188 -78c-110 0 -189 71 -189 195v270h35v-269c0 -106 66 -164 158 -164c73 0 144 34 184 95v338z" />
    <glyph glyph-name="umacron" unicode="&#x16b;" horiz-adv-x="575" 
d="M416 599v-29h-276v29h276zM445 453h35v-453h-35v66c-43 -50 -111 -78 -188 -78c-110 0 -189 71 -189 195v270h35v-269c0 -106 66 -164 158 -164c73 0 144 34 184 95v338z" />
    <glyph glyph-name="uogonek" unicode="&#x173;" horiz-adv-x="575" 
d="M505 -166l3 -30c-9 -3 -25 -4 -38 -4c-70 0 -118 39 -118 98c0 57 47 93 93 115v53c-43 -50 -111 -78 -188 -78c-110 0 -189 71 -189 195v270h35v-269c0 -106 66 -164 158 -164c73 0 144 34 184 95v338h35v-453c-46 -20 -95 -47 -95 -98c0 -44 35 -70 90 -70
c11 0 21 1 30 2z" />
    <glyph glyph-name="uring" unicode="&#x16f;" horiz-adv-x="575" 
d="M279 546c-52 0 -91 38 -91 89s39 88 91 88c51 0 90 -37 90 -88s-39 -89 -90 -89zM279 699c-37 0 -65 -29 -65 -64c0 -37 28 -65 65 -65c36 0 65 28 65 65c0 35 -29 64 -65 64zM445 453h35v-453h-35v66c-43 -50 -111 -78 -188 -78c-110 0 -189 71 -189 195v270h35v-269
c0 -106 66 -164 158 -164c73 0 144 34 184 95v338z" />
    <glyph glyph-name="v" unicode="v" horiz-adv-x="569" 
d="M485 453h38l-221 -453h-36l-220 453h38l201 -410z" />
    <glyph glyph-name="w" unicode="w" horiz-adv-x="771" 
d="M687 453h38l-171 -453h-34l-135 401l-134 -401h-35l-170 453h38l149 -400l135 400h34l136 -400z" />
    <glyph glyph-name="wacute" unicode="&#x1e83;" horiz-adv-x="771" 
d="M487 687l-89 -138h-36l85 138h40zM687 453h38l-171 -453h-34l-135 401l-134 -401h-35l-170 453h38l149 -400l135 400h34l136 -400z" />
    <glyph glyph-name="wcircumflex" unicode="&#x175;" horiz-adv-x="771" 
d="M386 659l-109 -116h-38l125 139h43l126 -139h-38zM687 453h38l-171 -453h-34l-135 401l-134 -401h-35l-170 453h38l149 -400l135 400h34l136 -400z" />
    <glyph glyph-name="wdieresis" unicode="&#x1e85;" horiz-adv-x="771" 
d="M300 588c-18 0 -32 14 -32 32c0 17 14 31 32 31s32 -14 32 -31c0 -18 -14 -32 -32 -32zM472 588c-18 0 -32 14 -32 32c0 17 14 31 32 31s32 -14 32 -31c0 -18 -14 -32 -32 -32zM687 453h38l-171 -453h-34l-135 401l-134 -401h-35l-170 453h38l149 -400l135 400h34
l136 -400z" />
    <glyph glyph-name="wgrave" unicode="&#x1e81;" horiz-adv-x="771" 
d="M412 550h-36l-89 138h40zM687 453h38l-171 -453h-34l-135 401l-134 -401h-35l-170 453h38l149 -400l135 400h34l136 -400z" />
    <glyph glyph-name="x" unicode="x" horiz-adv-x="523" 
d="M482 0h-44l-176 201l-178 -201h-43l197 226l-191 228h43l171 -202l172 202h44l-192 -228z" />
    <glyph glyph-name="y" unicode="y" horiz-adv-x="594" 
d="M510 454h38l-321 -684h-38l95 202l-238 482h38l218 -443z" />
    <glyph glyph-name="yacute" unicode="&#xfd;" horiz-adv-x="594" 
d="M406 687l-89 -138h-36l85 138h40zM510 454h38l-321 -684h-38l95 202l-238 482h38l218 -443z" />
    <glyph glyph-name="ycircumflex" unicode="&#x177;" horiz-adv-x="594" 
d="M305 659l-109 -116h-38l125 139h43l126 -139h-38zM510 454h38l-321 -684h-38l95 202l-238 482h38l218 -443z" />
    <glyph glyph-name="ydieresis" unicode="&#xff;" horiz-adv-x="594" 
d="M219 588c-18 0 -32 14 -32 32c0 17 14 31 32 31s32 -14 32 -31c0 -18 -14 -32 -32 -32zM391 588c-18 0 -32 14 -32 32c0 17 14 31 32 31s32 -14 32 -31c0 -18 -14 -32 -32 -32zM510 454h38l-321 -684h-38l95 202l-238 482h38l218 -443z" />
    <glyph glyph-name="ygrave" unicode="&#x1ef3;" horiz-adv-x="594" 
d="M331 550h-36l-89 138h40zM510 454h38l-321 -684h-38l95 202l-238 482h38l218 -443z" />
    <glyph glyph-name="z" unicode="z" horiz-adv-x="490" 
d="M434 453v-23l-327 -399h327v-31h-377v22l326 400h-313v31h364z" />
    <glyph glyph-name="zacute" unicode="&#x17a;" horiz-adv-x="490" 
d="M347 687l-89 -138h-36l85 138h40zM434 453v-23l-327 -399h327v-31h-377v22l326 400h-313v31h364z" />
    <glyph glyph-name="zcaron" unicode="&#x17e;" horiz-adv-x="490" 
d="M267 543h-43l-125 139h38l109 -116l109 116h38zM434 453v-23l-327 -399h327v-31h-377v22l326 400h-313v31h364z" />
    <glyph glyph-name="zdotaccent" unicode="&#x17c;" horiz-adv-x="490" 
d="M246 588c-18 0 -32 14 -32 32c0 17 14 31 32 31s32 -14 32 -31c0 -18 -14 -32 -32 -32zM434 453v-23l-327 -399h327v-31h-377v22l326 400h-313v31h364z" />
    <glyph glyph-name="germandbls.case" horiz-adv-x="717" 
d="M429 375c133 0 223 -75 223 -187c0 -119 -99 -200 -249 -200c-39 0 -83 5 -125 16v35c43 -14 86 -19 125 -19c128 0 212 67 212 167c0 93 -76 156 -193 156h-84v18l244 286h-262c-113 0 -187 -74 -187 -187v-460h-35v460c0 132 89 220 222 220h311v-24l-240 -281h38z" />
    <glyph glyph-name="l.ss01" horiz-adv-x="343" 
d="M130 710v-589c0 -70 30 -101 83 -101c22 0 50 5 77 14l6 -33c-33 -9 -63 -13 -86 -13c-73 0 -115 42 -115 131v591h35z" />
    <glyph glyph-name="lacute.ss01" horiz-adv-x="343" 
d="M181 944h40l-89 -138h-36zM130 710v-589c0 -70 30 -101 83 -101c22 0 50 5 77 14l6 -33c-33 -9 -63 -13 -86 -13c-73 0 -115 42 -115 131v591h35z" />
    <glyph glyph-name="lcaron.ss01" horiz-adv-x="343" 
d="M130 710v-589c0 -70 30 -101 83 -101c22 0 50 5 77 14l6 -33c-33 -9 -63 -13 -86 -13c-73 0 -115 42 -115 131v591h35zM227 710h36l-20 -174h-29z" />
    <glyph glyph-name="lcommaaccent.ss01" horiz-adv-x="343" 
d="M130 710v-589c0 -70 30 -101 83 -101c22 0 50 5 77 14l6 -33c-33 -9 -63 -13 -86 -13c-73 0 -115 42 -115 131v591h35zM145 -230l37 95c-20 2 -28 14 -28 28c0 17 13 30 31 30c14 0 31 -10 31 -32c0 -15 -4 -22 -46 -121h-25z" />
    <glyph glyph-name="ldot.ss01" horiz-adv-x="357" 
d="M130 710v-589c0 -70 30 -101 83 -101c22 0 50 5 77 14l6 -33c-33 -9 -63 -13 -86 -13c-73 0 -115 42 -115 131v591h35zM277 277c-18 0 -32 14 -32 32c0 17 14 31 32 31s32 -14 32 -31c0 -18 -14 -32 -32 -32z" />
    <glyph glyph-name="lslash.ss01" horiz-adv-x="352" 
d="M290 34l6 -33c-33 -9 -63 -13 -86 -13c-73 0 -115 42 -115 131v198l-64 -37v39l64 37v354h35v-335l92 53v-38l-92 -53v-216c0 -70 30 -101 83 -101c22 0 50 5 77 14z" />
    <glyph glyph-name="y.ss04" horiz-adv-x="589" 
d="M458 453h35v-491c0 -125 -82 -204 -208 -204c-113 0 -193 64 -213 153h37c17 -70 82 -121 176 -121c106 0 173 66 173 172v107c-44 -52 -113 -78 -180 -78c-120 0 -197 72 -197 196v266h35v-265c0 -106 64 -164 165 -164c69 0 138 33 177 93v336z" />
    <glyph glyph-name="yacute.ss04" horiz-adv-x="589" 
d="M391 687l-89 -138h-36l85 138h40zM458 453h35v-491c0 -125 -82 -204 -208 -204c-113 0 -193 64 -213 153h37c17 -70 82 -121 176 -121c106 0 173 66 173 172v107c-44 -52 -113 -78 -180 -78c-120 0 -197 72 -197 196v266h35v-265c0 -106 64 -164 165 -164
c69 0 138 33 177 93v336z" />
    <glyph glyph-name="ycircumflex.ss04" horiz-adv-x="589" 
d="M290 659l-109 -116h-38l125 139h43l126 -139h-38zM458 453h35v-491c0 -125 -82 -204 -208 -204c-113 0 -193 64 -213 153h37c17 -70 82 -121 176 -121c106 0 173 66 173 172v107c-44 -52 -113 -78 -180 -78c-120 0 -197 72 -197 196v266h35v-265c0 -106 64 -164 165 -164
c69 0 138 33 177 93v336z" />
    <glyph glyph-name="ydieresis.ss04" horiz-adv-x="589" 
d="M204 588c-18 0 -32 14 -32 32c0 17 14 31 32 31s32 -14 32 -31c0 -18 -14 -32 -32 -32zM376 588c-18 0 -32 14 -32 32c0 17 14 31 32 31s32 -14 32 -31c0 -18 -14 -32 -32 -32zM458 453h35v-491c0 -125 -82 -204 -208 -204c-113 0 -193 64 -213 153h37
c17 -70 82 -121 176 -121c106 0 173 66 173 172v107c-44 -52 -113 -78 -180 -78c-120 0 -197 72 -197 196v266h35v-265c0 -106 64 -164 165 -164c69 0 138 33 177 93v336z" />
    <glyph glyph-name="ygrave.ss04" horiz-adv-x="589" 
d="M316 550h-36l-89 138h40zM458 453h35v-491c0 -125 -82 -204 -208 -204c-113 0 -193 64 -213 153h37c17 -70 82 -121 176 -121c106 0 173 66 173 172v107c-44 -52 -113 -78 -180 -78c-120 0 -197 72 -197 196v266h35v-265c0 -106 64 -164 165 -164c69 0 138 33 177 93v336
z" />
    <glyph glyph-name="a.ss06" horiz-adv-x="545" 
d="M285 465c117 0 191 -63 191 -169v-296h-35v59c-51 -43 -117 -71 -193 -71c-110 0 -183 52 -183 139c0 71 55 133 162 133h214v36c0 85 -59 138 -156 138c-79 0 -150 -36 -163 -118h-37c15 103 103 149 200 149zM252 21c71 0 136 26 189 77v133h-214
c-87 0 -127 -52 -127 -104c0 -65 60 -106 152 -106z" />
    <glyph glyph-name="aacute.ss06" horiz-adv-x="545" 
d="M390 687l-89 -138h-36l85 138h40zM285 465c117 0 191 -63 191 -169v-296h-35v59c-51 -43 -117 -71 -193 -71c-110 0 -183 52 -183 139c0 71 55 133 162 133h214v36c0 85 -59 138 -156 138c-79 0 -150 -36 -163 -118h-37c15 103 103 149 200 149zM252 21
c71 0 136 26 189 77v133h-214c-87 0 -127 -52 -127 -104c0 -65 60 -106 152 -106z" />
    <glyph glyph-name="abreve.ss06" horiz-adv-x="545" 
d="M289 541c-67 0 -134 42 -134 128h30c0 -69 55 -101 104 -101s104 32 104 101h30c0 -86 -67 -128 -134 -128zM285 465c117 0 191 -63 191 -169v-296h-35v59c-51 -43 -117 -71 -193 -71c-110 0 -183 52 -183 139c0 71 55 133 162 133h214v36c0 85 -59 138 -156 138
c-79 0 -150 -36 -163 -118h-37c15 103 103 149 200 149zM252 21c71 0 136 26 189 77v133h-214c-87 0 -127 -52 -127 -104c0 -65 60 -106 152 -106z" />
    <glyph glyph-name="uni01CE.ss06" horiz-adv-x="545" 
d="M310 543h-43l-125 139h38l109 -116l109 116h38zM285 465c117 0 191 -63 191 -169v-296h-35v59c-51 -43 -117 -71 -193 -71c-110 0 -183 52 -183 139c0 71 55 133 162 133h214v36c0 85 -59 138 -156 138c-79 0 -150 -36 -163 -118h-37c15 103 103 149 200 149zM252 21
c71 0 136 26 189 77v133h-214c-87 0 -127 -52 -127 -104c0 -65 60 -106 152 -106z" />
    <glyph glyph-name="acircumflex.ss06" horiz-adv-x="545" 
d="M289 659l-109 -116h-38l125 139h43l126 -139h-38zM285 465c117 0 191 -63 191 -169v-296h-35v59c-51 -43 -117 -71 -193 -71c-110 0 -183 52 -183 139c0 71 55 133 162 133h214v36c0 85 -59 138 -156 138c-79 0 -150 -36 -163 -118h-37c15 103 103 149 200 149zM252 21
c71 0 136 26 189 77v133h-214c-87 0 -127 -52 -127 -104c0 -65 60 -106 152 -106z" />
    <glyph glyph-name="adieresis.ss06" horiz-adv-x="545" 
d="M203 588c-18 0 -32 14 -32 32c0 17 14 31 32 31s32 -14 32 -31c0 -18 -14 -32 -32 -32zM375 588c-18 0 -32 14 -32 32c0 17 14 31 32 31s32 -14 32 -31c0 -18 -14 -32 -32 -32zM285 465c117 0 191 -63 191 -169v-296h-35v59c-51 -43 -117 -71 -193 -71
c-110 0 -183 52 -183 139c0 71 55 133 162 133h214v36c0 85 -59 138 -156 138c-79 0 -150 -36 -163 -118h-37c15 103 103 149 200 149zM252 21c71 0 136 26 189 77v133h-214c-87 0 -127 -52 -127 -104c0 -65 60 -106 152 -106z" />
    <glyph glyph-name="agrave.ss06" horiz-adv-x="545" 
d="M315 550h-36l-89 138h40zM285 465c117 0 191 -63 191 -169v-296h-35v59c-51 -43 -117 -71 -193 -71c-110 0 -183 52 -183 139c0 71 55 133 162 133h214v36c0 85 -59 138 -156 138c-79 0 -150 -36 -163 -118h-37c15 103 103 149 200 149zM252 21c71 0 136 26 189 77v133
h-214c-87 0 -127 -52 -127 -104c0 -65 60 -106 152 -106z" />
    <glyph glyph-name="amacron.ss06" horiz-adv-x="545" 
d="M426 599v-29h-276v29h276zM285 465c117 0 191 -63 191 -169v-296h-35v59c-51 -43 -117 -71 -193 -71c-110 0 -183 52 -183 139c0 71 55 133 162 133h214v36c0 85 -59 138 -156 138c-79 0 -150 -36 -163 -118h-37c15 103 103 149 200 149zM252 21c71 0 136 26 189 77v133
h-214c-87 0 -127 -52 -127 -104c0 -65 60 -106 152 -106z" />
    <glyph glyph-name="aogonek.ss06" horiz-adv-x="545" 
d="M501 -166l3 -30c-9 -3 -25 -4 -38 -4c-70 0 -118 39 -118 98c0 57 47 93 93 115v46c-51 -43 -117 -71 -193 -71c-110 0 -183 52 -183 139c0 71 55 133 162 133h214v36c0 85 -59 138 -156 138c-79 0 -150 -36 -163 -118h-37c15 103 103 149 200 149
c117 0 191 -63 191 -169v-296c-46 -20 -95 -47 -95 -98c0 -44 35 -70 90 -70c11 0 21 1 30 2zM252 21c71 0 136 26 189 77v133h-214c-87 0 -127 -52 -127 -104c0 -65 60 -106 152 -106z" />
    <glyph glyph-name="aring.ss06" horiz-adv-x="545" 
d="M289 546c-52 0 -91 38 -91 89s39 88 91 88c51 0 90 -37 90 -88s-39 -89 -90 -89zM289 699c-37 0 -65 -29 -65 -64c0 -37 28 -65 65 -65c36 0 65 28 65 65c0 35 -29 64 -65 64zM285 465c117 0 191 -63 191 -169v-296h-35v59c-51 -43 -117 -71 -193 -71
c-110 0 -183 52 -183 139c0 71 55 133 162 133h214v36c0 85 -59 138 -156 138c-79 0 -150 -36 -163 -118h-37c15 103 103 149 200 149zM252 21c71 0 136 26 189 77v133h-214c-87 0 -127 -52 -127 -104c0 -65 60 -106 152 -106z" />
    <glyph glyph-name="atilde.ss06" horiz-adv-x="545" 
d="M276 627c-38 28 -87 16 -87 -33h-30c0 81 81 93 129 60l38 -27c45 -31 88 -16 88 34h30c0 -81 -74 -100 -129 -61zM285 465c117 0 191 -63 191 -169v-296h-35v59c-51 -43 -117 -71 -193 -71c-110 0 -183 52 -183 139c0 71 55 133 162 133h214v36c0 85 -59 138 -156 138
c-79 0 -150 -36 -163 -118h-37c15 103 103 149 200 149zM252 21c71 0 136 26 189 77v133h-214c-87 0 -127 -52 -127 -104c0 -65 60 -106 152 -106z" />
    <glyph glyph-name="ordfeminine" unicode="&#xaa;" horiz-adv-x="354" 
d="M184 686c74 0 122 -42 122 -113v-195h-27v36c-30 -27 -66 -46 -115 -46c-73 0 -122 36 -122 95c0 47 36 84 108 84h129v26c0 54 -35 88 -95 88c-55 0 -97 -23 -105 -77h-28c9 71 64 102 133 102zM166 395c45 0 80 14 113 48v80h-130c-54 0 -80 -27 -80 -60
c0 -43 38 -68 97 -68z" />
    <glyph glyph-name="ordmasculine" unicode="&#xba;" horiz-adv-x="389" 
d="M194 364c-88 0 -161 71 -161 162c0 90 73 160 161 160s162 -70 162 -160c0 -91 -74 -162 -162 -162zM194 391c73 0 132 60 132 135c0 74 -59 133 -132 133c-74 0 -131 -59 -131 -133c0 -75 57 -135 131 -135z" />
    <glyph glyph-name="zero" unicode="0" horiz-adv-x="716" 
d="M358 692c180 0 286 -140 286 -352s-106 -352 -286 -352s-286 140 -286 352s106 352 286 352zM358 21c158 0 249 127 249 319s-91 319 -249 319s-248 -127 -248 -319s90 -319 248 -319z" />
    <glyph glyph-name="one" unicode="1" horiz-adv-x="499" 
d="M294 31h187v-31h-428v31h206v607l-192 -74v36l209 80h18v-649z" />
    <glyph glyph-name="two" unicode="2" horiz-adv-x="558" 
d="M125 31h383v-31h-441v20l227 222c103 98 162 163 162 250c0 98 -73 168 -185 168c-103 0 -179 -59 -190 -152h-36c9 112 99 184 225 184c136 0 222 -83 222 -200c0 -92 -56 -160 -171 -269z" />
    <glyph glyph-name="three" unicode="3" horiz-adv-x="579" 
d="M383 346c80 -25 129 -88 129 -171c0 -111 -92 -186 -228 -186c-132 0 -226 65 -235 166h36c10 -81 90 -134 200 -134c114 0 192 62 192 154s-72 154 -180 154h-58v31h58c96 0 160 60 160 149c0 92 -69 151 -179 151c-97 0 -164 -50 -174 -129h-37c10 98 91 161 210 161
c131 0 215 -72 215 -183c0 -78 -41 -137 -109 -163z" />
    <glyph glyph-name="four" unicode="4" horiz-adv-x="645" 
d="M596 191v-32h-120v-159h-35v159h-376v21l216 500h38l-210 -489h332v232h35v-232h120z" />
    <glyph glyph-name="five" unicode="5" horiz-adv-x="582" 
d="M297 407c140 0 230 -81 230 -201c0 -124 -89 -218 -230 -218c-123 0 -220 72 -243 190h37c21 -99 104 -158 206 -158c120 0 195 81 195 185c0 102 -76 170 -198 170h-197l1 305h399v-33h-365l-1 -240h166z" />
    <glyph glyph-name="six" unicode="6" horiz-adv-x="629" 
d="M315 448c141 0 243 -93 243 -229c0 -139 -102 -231 -243 -231c-142 0 -244 92 -244 230c0 57 19 105 50 148l234 314h44l-188 -252c29 12 64 20 104 20zM315 19c119 0 207 79 207 199c0 117 -88 197 -207 197c-67 0 -122 -22 -159 -61l-6 -8c-28 -36 -43 -78 -43 -129
c0 -119 88 -198 208 -198z" />
    <glyph glyph-name="seven" unicode="7" horiz-adv-x="501" 
d="M19 680h458v-22l-337 -658h-42l333 647h-412v33z" />
    <glyph glyph-name="eight" unicode="8" horiz-adv-x="635" 
d="M409 359c96 -24 156 -88 156 -174c0 -119 -99 -197 -247 -197c-149 0 -247 78 -247 197c0 86 59 150 156 174c-76 23 -126 77 -126 156c0 103 92 177 217 177s217 -74 217 -177c0 -79 -50 -133 -126 -156zM136 514c0 -91 77 -143 182 -143c104 0 181 52 181 143
c0 85 -77 148 -181 148c-105 0 -182 -63 -182 -148zM318 20c125 0 209 66 209 166c0 95 -84 159 -209 159s-209 -64 -209 -159c0 -101 84 -166 209 -166z" />
    <glyph glyph-name="nine" unicode="9" horiz-adv-x="629" 
d="M314 692c142 0 244 -92 244 -230c0 -57 -19 -105 -50 -148l-234 -314h-44l188 252c-29 -12 -64 -20 -104 -20c-141 0 -243 93 -243 229c0 139 102 231 243 231zM479 334c28 36 43 78 43 129c0 119 -88 198 -208 198c-119 0 -207 -79 -207 -199c0 -117 88 -197 207 -197
c67 0 122 22 159 61z" />
    <glyph glyph-name="zero.osf" horiz-adv-x="681" 
d="M341 547c156 0 269 -108 269 -279s-113 -280 -269 -280s-270 109 -270 280s114 279 270 279zM341 21c134 0 233 95 233 247c0 151 -99 247 -233 247s-234 -96 -234 -247c0 -152 100 -247 234 -247z" />
    <glyph glyph-name="one.osf" horiz-adv-x="499" 
d="M294 31h187v-31h-428v31h206v477l-192 -74v36l209 80h18v-519z" />
    <glyph glyph-name="two.osf" horiz-adv-x="540" 
d="M127 31h363v-31h-432v20l166 116c116 81 214 145 214 234c0 97 -68 152 -171 152c-104 0 -176 -62 -187 -155h-35c9 112 94 187 220 187s209 -68 209 -185c0 -97 -92 -163 -224 -254z" />
    <glyph glyph-name="three.osf" horiz-adv-x="579" 
d="M383 206c80 -25 129 -88 129 -171c0 -111 -92 -186 -228 -186c-132 0 -226 65 -235 166h36c10 -81 90 -134 200 -134c114 0 192 62 192 154s-72 154 -180 154h-58v31h58c96 0 160 60 160 149c0 92 -69 151 -179 151c-97 0 -164 -50 -174 -129h-37c10 98 91 161 210 161
c131 0 215 -72 215 -183c0 -78 -41 -137 -109 -163z" />
    <glyph glyph-name="four.osf" horiz-adv-x="645" 
d="M596 57v-32h-120v-159h-35v159h-376v21l216 500h38l-210 -489h332v232h35v-232h120z" />
    <glyph glyph-name="five.osf" horiz-adv-x="582" 
d="M297 270c140 0 230 -81 230 -201c0 -124 -89 -218 -230 -218c-123 0 -220 72 -243 190h37c21 -99 104 -158 206 -158c120 0 195 81 195 185c0 102 -76 170 -198 170h-197l1 305h399v-33h-365l-1 -240h166z" />
    <glyph glyph-name="six.osf" horiz-adv-x="629" 
d="M315 448c141 0 243 -93 243 -229c0 -139 -102 -231 -243 -231c-142 0 -244 92 -244 230c0 57 19 105 50 148l234 314h44l-188 -252c29 12 64 20 104 20zM315 19c119 0 207 79 207 199c0 117 -88 197 -207 197c-67 0 -122 -22 -159 -61l-6 -8c-28 -36 -43 -78 -43 -129
c0 -119 88 -198 208 -198z" />
    <glyph glyph-name="seven.osf" horiz-adv-x="501" 
d="M19 540h458v-22l-337 -658h-42l333 647h-412v33z" />
    <glyph glyph-name="eight.osf" horiz-adv-x="635" 
d="M409 359c96 -24 156 -88 156 -174c0 -119 -99 -197 -247 -197c-149 0 -247 78 -247 197c0 86 59 150 156 174c-76 23 -126 77 -126 156c0 103 92 177 217 177s217 -74 217 -177c0 -79 -50 -133 -126 -156zM136 514c0 -91 77 -143 182 -143c104 0 181 52 181 143
c0 85 -77 148 -181 148c-105 0 -182 -63 -182 -148zM318 20c125 0 209 66 209 166c0 95 -84 159 -209 159s-209 -64 -209 -159c0 -101 84 -166 209 -166z" />
    <glyph glyph-name="nine.osf" horiz-adv-x="629" 
d="M314 538c142 0 244 -92 244 -230c0 -57 -19 -105 -50 -148l-234 -314h-44l188 252c-29 -12 -64 -20 -104 -20c-141 0 -243 93 -243 229c0 139 102 231 243 231zM479 180c28 36 43 78 43 129c0 119 -88 198 -208 198c-119 0 -207 -79 -207 -199c0 -117 88 -197 207 -197
c67 0 122 22 159 61z" />
    <glyph glyph-name="zero.osf.zero" horiz-adv-x="681" 
d="M341 547c156 0 269 -108 269 -279s-113 -280 -269 -280s-270 109 -270 280s114 279 270 279zM341 515c-134 0 -234 -96 -234 -247c0 -66 19 -122 52 -164l338 354c-41 37 -95 57 -156 57zM341 21c134 0 233 95 233 247c0 70 -22 129 -58 171l-338 -355
c41 -41 98 -63 163 -63z" />
    <glyph glyph-name="zero.tf" horiz-adv-x="670" 
d="M335 692c163 0 267 -140 267 -352s-104 -352 -267 -352c-162 0 -267 140 -267 352s105 352 267 352zM335 21c140 0 230 127 230 319s-90 319 -230 319s-230 -127 -230 -319s90 -319 230 -319z" />
    <glyph glyph-name="one.tf" horiz-adv-x="670" 
d="M570 31v-31h-468v31h227v607l-192 -74v36l209 80h18v-649h206z" />
    <glyph glyph-name="two.tf" horiz-adv-x="670" 
d="M176 31h383v-31h-441v20l227 222c103 98 162 163 162 250c0 98 -73 168 -185 168c-103 0 -179 -59 -190 -152h-36c9 112 99 184 225 184c136 0 222 -83 222 -200c0 -92 -56 -160 -171 -269z" />
    <glyph glyph-name="three.tf" horiz-adv-x="670" 
d="M438 346c80 -25 129 -88 129 -171c0 -111 -92 -186 -228 -186c-132 0 -226 65 -235 166h36c10 -81 90 -134 200 -134c114 0 192 62 192 154s-72 154 -180 154h-58v31h58c96 0 160 60 160 149c0 92 -69 151 -179 151c-97 0 -164 -50 -174 -129h-37c10 98 91 161 210 161
c131 0 215 -72 215 -183c0 -78 -41 -137 -109 -163z" />
    <glyph glyph-name="four.tf" horiz-adv-x="670" 
d="M601 191v-32h-120v-159h-35v159h-376v21l216 500h38l-210 -489h332v232h35v-232h120z" />
    <glyph glyph-name="five.tf" horiz-adv-x="670" 
d="M337 407c140 0 230 -81 230 -201c0 -124 -89 -218 -230 -218c-123 0 -220 72 -243 190h37c21 -99 104 -158 206 -158c120 0 195 81 195 185c0 102 -76 170 -198 170h-197l1 305h399v-33h-365l-1 -240h166z" />
    <glyph glyph-name="six.tf" horiz-adv-x="670" 
d="M334 448c141 0 243 -93 243 -229c0 -139 -102 -231 -243 -231c-142 0 -244 92 -244 230c0 57 19 105 50 148l234 314h44l-188 -252c29 12 64 20 104 20zM334 19c119 0 207 79 207 199c0 117 -88 197 -207 197c-67 0 -122 -22 -159 -61l-6 -8c-28 -36 -43 -78 -43 -129
c0 -119 88 -198 208 -198z" />
    <glyph glyph-name="seven.tf" horiz-adv-x="670" 
d="M109 680h458v-22l-337 -658h-42l333 647h-412v33z" />
    <glyph glyph-name="eight.tf" horiz-adv-x="670" 
d="M426 359c96 -24 156 -88 156 -174c0 -119 -99 -197 -247 -197c-149 0 -247 78 -247 197c0 86 59 150 156 174c-76 23 -126 77 -126 156c0 103 92 177 217 177s217 -74 217 -177c0 -79 -50 -133 -126 -156zM153 514c0 -91 77 -143 182 -143c104 0 181 52 181 143
c0 85 -77 148 -181 148c-105 0 -182 -63 -182 -148zM335 20c125 0 209 66 209 166c0 95 -84 159 -209 159s-209 -64 -209 -159c0 -101 84 -166 209 -166z" />
    <glyph glyph-name="nine.tf" horiz-adv-x="670" 
d="M342 692c142 0 244 -92 244 -230c0 -57 -19 -105 -50 -148l-234 -314h-44l188 252c-29 -12 -64 -20 -104 -20c-141 0 -243 93 -243 229c0 139 102 231 243 231zM507 334c28 36 43 78 43 129c0 119 -88 198 -208 198c-119 0 -207 -79 -207 -199c0 -117 88 -197 207 -197
c67 0 122 22 159 61z" />
    <glyph glyph-name="zero.zero" horiz-adv-x="716" 
d="M358 692c180 0 286 -140 286 -352s-106 -352 -286 -352s-286 140 -286 352s106 352 286 352zM358 659c-158 0 -248 -127 -248 -319c0 -100 24 -182 70 -238l331 502c-40 36 -91 55 -153 55zM358 21c158 0 249 127 249 319c0 103 -26 188 -75 244l-331 -505
c41 -37 93 -58 157 -58z" />
    <glyph glyph-name="uni2080" unicode="&#x2080;" horiz-adv-x="426" 
d="M213 194c105 0 165 -82 165 -191s-60 -191 -165 -191c-104 0 -165 82 -165 191s61 191 165 191zM213 -159c85 0 134 71 134 162s-49 163 -134 163s-134 -72 -134 -163s49 -162 134 -162z" />
    <glyph glyph-name="uni2081" unicode="&#x2081;" horiz-adv-x="295" 
d="M173 -153h103v-27h-246v27h113v297l-105 -29v28l119 34h16v-330z" />
    <glyph glyph-name="uni2082" unicode="&#x2082;" horiz-adv-x="355" 
d="M108 -153h199v-27h-252v17l129 123c54 50 84 81 84 125c0 47 -34 82 -92 82c-55 0 -88 -31 -93 -78h-30c4 63 48 105 122 105c77 0 124 -47 124 -108c0 -47 -28 -83 -90 -141z" />
    <glyph glyph-name="uni2083" unicode="&#x2083;" horiz-adv-x="366" 
d="M247 6c42 -15 67 -47 67 -90c0 -60 -52 -103 -131 -103c-77 0 -128 38 -135 94h31c7 -39 46 -66 105 -66s100 30 100 75c0 46 -38 76 -96 76h-33v25h33c50 0 84 31 84 74c0 45 -35 76 -92 76c-52 0 -85 -27 -91 -66h-30c6 56 51 93 120 93c75 0 122 -42 122 -103
c0 -39 -20 -69 -54 -85z" />
    <glyph glyph-name="uni2084" unicode="&#x2084;" horiz-adv-x="392" 
d="M344 -70v-28h-65v-82h-29v82h-212v20l121 264h32l-115 -256h174v121h29v-121h65z" />
    <glyph glyph-name="uni2085" unicode="&#x2085;" horiz-adv-x="369" 
d="M183 43c82 0 128 -45 128 -111c0 -67 -48 -120 -130 -120c-81 0 -124 41 -137 105h31c11 -48 44 -78 106 -78c63 0 100 42 100 93c0 50 -35 84 -99 84l-85 -1h-29v171h229v-28h-200v-115h86z" />
    <glyph glyph-name="uni2086" unicode="&#x2086;" horiz-adv-x="362" 
d="M180 64c81 0 139 -51 139 -125s-58 -127 -140 -127c-81 0 -140 53 -140 127c0 30 11 56 30 82l126 165h37l-96 -128c13 4 27 6 44 6zM179 -162c62 0 109 41 109 99c0 59 -47 99 -109 99c-35 0 -64 -11 -82 -30l-3 -4c-16 -17 -24 -40 -24 -64c0 -59 46 -100 109 -100z
" />
    <glyph glyph-name="uni2087" unicode="&#x2087;" horiz-adv-x="297" 
d="M20 186h262v-19l-184 -347h-36l179 337h-221v29z" />
    <glyph glyph-name="uni2088" unicode="&#x2088;" horiz-adv-x="382" 
d="M253 14c50 -15 80 -49 80 -94c0 -64 -56 -108 -143 -108c-85 0 -141 44 -141 108c0 45 30 79 80 94c-39 14 -63 42 -63 82c0 56 52 98 124 98c74 0 127 -42 127 -98c0 -40 -25 -68 -64 -82zM96 95c0 -45 40 -72 94 -72c56 0 96 27 96 72c0 42 -40 74 -96 74
c-54 0 -94 -32 -94 -74zM190 -161c66 0 109 34 109 83c0 47 -43 79 -109 79c-64 0 -107 -32 -107 -79c0 -49 43 -83 107 -83z" />
    <glyph glyph-name="uni2089" unicode="&#x2089;" horiz-adv-x="362" 
d="M183 195c81 0 140 -53 140 -127c0 -30 -11 -56 -30 -82l-126 -165h-37l96 128c-13 -4 -27 -6 -44 -6c-81 0 -139 51 -139 125s58 127 140 127zM265 1l3 4c16 17 24 40 24 64c0 59 -46 100 -109 100c-62 0 -109 -41 -109 -99c0 -59 47 -99 109 -99c35 0 64 11 82 30z" />
    <glyph glyph-name="zero.dnom" horiz-adv-x="426" 
d="M213 374c105 0 165 -82 165 -191s-60 -191 -165 -191c-104 0 -165 82 -165 191s61 191 165 191zM213 21c85 0 134 71 134 162s-49 163 -134 163s-134 -72 -134 -163s49 -162 134 -162z" />
    <glyph glyph-name="one.dnom" horiz-adv-x="295" 
d="M173 27h103v-27h-246v27h113v297l-105 -29v28l119 34h16v-330z" />
    <glyph glyph-name="two.dnom" horiz-adv-x="355" 
d="M108 27h199v-27h-252v17l129 123c54 50 84 81 84 125c0 47 -34 82 -92 82c-55 0 -88 -31 -93 -78h-30c4 63 48 105 122 105c77 0 124 -47 124 -108c0 -47 -28 -83 -90 -141z" />
    <glyph glyph-name="three.dnom" horiz-adv-x="366" 
d="M247 186c42 -15 67 -47 67 -90c0 -60 -52 -103 -131 -103c-77 0 -128 38 -135 94h31c7 -39 46 -66 105 -66s100 30 100 75c0 46 -38 76 -96 76h-33v25h33c50 0 84 31 84 74c0 45 -35 76 -92 76c-52 0 -85 -27 -91 -66h-30c6 56 51 93 120 93c75 0 122 -42 122 -103
c0 -39 -20 -69 -54 -85z" />
    <glyph glyph-name="four.dnom" horiz-adv-x="392" 
d="M344 110v-28h-65v-82h-29v82h-212v20l121 264h32l-115 -256h174v121h29v-121h65z" />
    <glyph glyph-name="five.dnom" horiz-adv-x="369" 
d="M183 223c82 0 128 -45 128 -111c0 -67 -48 -120 -130 -120c-81 0 -124 41 -137 105h31c11 -48 44 -78 106 -78c63 0 100 42 100 93c0 50 -35 84 -99 84l-85 -1h-29v171h229v-28h-200v-115h86z" />
    <glyph glyph-name="six.dnom" horiz-adv-x="362" 
d="M180 244c81 0 139 -51 139 -125s-58 -127 -140 -127c-81 0 -140 53 -140 127c0 30 11 56 30 82l126 165h37l-96 -128c13 4 27 6 44 6zM179 18c62 0 109 41 109 99c0 59 -47 99 -109 99c-35 0 -64 -11 -82 -30l-3 -4c-16 -17 -24 -40 -24 -64c0 -59 46 -100 109 -100z" />
    <glyph glyph-name="seven.dnom" horiz-adv-x="297" 
d="M20 366h262v-19l-184 -347h-36l179 337h-221v29z" />
    <glyph glyph-name="eight.dnom" horiz-adv-x="382" 
d="M253 194c50 -15 80 -49 80 -94c0 -64 -56 -108 -143 -108c-85 0 -141 44 -141 108c0 45 30 79 80 94c-39 14 -63 42 -63 82c0 56 52 98 124 98c74 0 127 -42 127 -98c0 -40 -25 -68 -64 -82zM96 275c0 -45 40 -72 94 -72c56 0 96 27 96 72c0 42 -40 74 -96 74
c-54 0 -94 -32 -94 -74zM190 19c66 0 109 34 109 83c0 47 -43 79 -109 79c-64 0 -107 -32 -107 -79c0 -49 43 -83 107 -83z" />
    <glyph glyph-name="nine.dnom" horiz-adv-x="362" 
d="M183 375c81 0 140 -53 140 -127c0 -30 -11 -56 -30 -82l-126 -165h-37l96 128c-13 -4 -27 -6 -44 -6c-81 0 -139 51 -139 125s58 127 140 127zM265 181l3 4c16 17 24 40 24 64c0 59 -46 100 -109 100c-62 0 -109 -41 -109 -99c0 -59 47 -99 109 -99c35 0 64 11 82 30z
" />
    <glyph glyph-name="zero.numr" horiz-adv-x="426" 
d="M213 690c105 0 165 -82 165 -191s-60 -191 -165 -191c-104 0 -165 82 -165 191s61 191 165 191zM213 337c85 0 134 71 134 162s-49 163 -134 163s-134 -72 -134 -163s49 -162 134 -162z" />
    <glyph glyph-name="one.numr" horiz-adv-x="295" 
d="M173 343h103v-27h-246v27h113v297l-105 -29v28l119 34h16v-330z" />
    <glyph glyph-name="two.numr" horiz-adv-x="355" 
d="M108 343h199v-27h-252v17l129 123c54 50 84 81 84 125c0 47 -34 82 -92 82c-55 0 -88 -31 -93 -78h-30c4 63 48 105 122 105c77 0 124 -47 124 -108c0 -47 -28 -83 -90 -141z" />
    <glyph glyph-name="three.numr" horiz-adv-x="366" 
d="M247 506c42 -15 67 -47 67 -90c0 -60 -52 -103 -131 -103c-77 0 -128 38 -135 94h31c7 -39 46 -66 105 -66s100 30 100 75c0 46 -38 76 -96 76h-33v25h33c50 0 84 31 84 74c0 45 -35 76 -92 76c-52 0 -85 -27 -91 -66h-30c6 56 51 93 120 93c75 0 122 -42 122 -103
c0 -39 -20 -69 -54 -85z" />
    <glyph glyph-name="four.numr" horiz-adv-x="392" 
d="M344 426v-28h-65v-82h-29v82h-212v20l121 264h32l-115 -256h174v121h29v-121h65z" />
    <glyph glyph-name="five.numr" horiz-adv-x="369" 
d="M183 539c82 0 128 -45 128 -111c0 -67 -48 -120 -130 -120c-81 0 -124 41 -137 105h31c11 -48 44 -78 106 -78c63 0 100 42 100 93c0 50 -35 84 -99 84l-85 -1h-29v171h229v-28h-200v-115h86z" />
    <glyph glyph-name="six.numr" horiz-adv-x="362" 
d="M180 560c81 0 139 -51 139 -125s-58 -127 -140 -127c-81 0 -140 53 -140 127c0 30 11 56 30 82l126 165h37l-96 -128c13 4 27 6 44 6zM179 334c62 0 109 41 109 99c0 59 -47 99 -109 99c-35 0 -64 -11 -82 -30l-3 -4c-16 -17 -24 -40 -24 -64c0 -59 46 -100 109 -100z
" />
    <glyph glyph-name="seven.numr" horiz-adv-x="297" 
d="M20 682h262v-19l-184 -347h-36l179 337h-221v29z" />
    <glyph glyph-name="eight.numr" horiz-adv-x="382" 
d="M253 514c50 -15 80 -49 80 -94c0 -64 -56 -108 -143 -108c-85 0 -141 44 -141 108c0 45 30 79 80 94c-39 14 -63 42 -63 82c0 56 52 98 124 98c74 0 127 -42 127 -98c0 -40 -25 -68 -64 -82zM96 595c0 -45 40 -72 94 -72c56 0 96 27 96 72c0 42 -40 74 -96 74
c-54 0 -94 -32 -94 -74zM190 339c66 0 109 34 109 83c0 47 -43 79 -109 79c-64 0 -107 -32 -107 -79c0 -49 43 -83 107 -83z" />
    <glyph glyph-name="nine.numr" horiz-adv-x="362" 
d="M183 695c81 0 140 -53 140 -127c0 -30 -11 -56 -30 -82l-126 -165h-37l96 128c-13 -4 -27 -6 -44 -6c-81 0 -139 51 -139 125s58 127 140 127zM265 501l3 4c16 17 24 40 24 64c0 59 -46 100 -109 100c-62 0 -109 -41 -109 -99c0 -59 47 -99 109 -99c35 0 64 11 82 30z
" />
    <glyph glyph-name="uni2070" unicode="&#x2070;" horiz-adv-x="426" 
d="M213 692c105 0 165 -82 165 -191s-60 -191 -165 -191c-104 0 -165 82 -165 191s61 191 165 191zM213 339c85 0 134 71 134 162s-49 163 -134 163s-134 -72 -134 -163s49 -162 134 -162z" />
    <glyph glyph-name="uni00B9" unicode="&#xb9;" horiz-adv-x="295" 
d="M173 346h103v-27h-246v27h113v297l-105 -29v28l119 34h16v-330z" />
    <glyph glyph-name="uni00B2" unicode="&#xb2;" horiz-adv-x="355" 
d="M108 345h199v-27h-252v17l129 123c54 50 84 81 84 125c0 47 -34 82 -92 82c-55 0 -88 -31 -93 -78h-30c4 63 48 105 122 105c77 0 124 -47 124 -108c0 -47 -28 -83 -90 -141z" />
    <glyph glyph-name="uni00B3" unicode="&#xb3;" horiz-adv-x="366" 
d="M247 505c42 -15 67 -47 67 -90c0 -60 -52 -103 -131 -103c-77 0 -128 38 -135 94h31c7 -39 46 -66 105 -66s100 30 100 75c0 46 -38 76 -96 76h-33v25h33c50 0 84 31 84 74c0 45 -35 76 -92 76c-52 0 -85 -27 -91 -66h-30c6 56 51 93 120 93c75 0 122 -42 122 -103
c0 -39 -20 -69 -54 -85z" />
    <glyph glyph-name="uni2074" unicode="&#x2074;" horiz-adv-x="392" 
d="M344 429v-28h-65v-82h-29v82h-212v20l121 264h32l-115 -256h174v121h29v-121h65z" />
    <glyph glyph-name="uni2075" unicode="&#x2075;" horiz-adv-x="369" 
d="M183 542c82 0 128 -45 128 -111c0 -67 -48 -120 -130 -120c-81 0 -124 41 -137 105h31c11 -48 44 -78 106 -78c63 0 100 42 100 93c0 50 -35 84 -99 84l-85 -1h-29v171h229v-28h-200v-115h86z" />
    <glyph glyph-name="uni2076" unicode="&#x2076;" horiz-adv-x="362" 
d="M180 563c81 0 139 -51 139 -125s-58 -127 -140 -127c-81 0 -140 53 -140 127c0 30 11 56 30 82l126 165h37l-96 -128c13 4 27 6 44 6zM179 337c62 0 109 41 109 99c0 59 -47 99 -109 99c-35 0 -64 -11 -82 -30l-3 -4c-16 -17 -24 -40 -24 -64c0 -59 46 -100 109 -100z
" />
    <glyph glyph-name="uni2077" unicode="&#x2077;" horiz-adv-x="297" 
d="M20 685h262v-19l-184 -347h-36l179 337h-221v29z" />
    <glyph glyph-name="uni2078" unicode="&#x2078;" horiz-adv-x="382" 
d="M253 512c50 -15 80 -49 80 -94c0 -64 -56 -108 -143 -108c-85 0 -141 44 -141 108c0 45 30 79 80 94c-39 14 -63 42 -63 82c0 56 52 98 124 98c74 0 127 -42 127 -98c0 -40 -25 -68 -64 -82zM96 593c0 -45 40 -72 94 -72c56 0 96 27 96 72c0 42 -40 74 -96 74
c-54 0 -94 -32 -94 -74zM190 337c66 0 109 34 109 83c0 47 -43 79 -109 79c-64 0 -107 -32 -107 -79c0 -49 43 -83 107 -83z" />
    <glyph glyph-name="uni2079" unicode="&#x2079;" horiz-adv-x="362" 
d="M183 699c81 0 140 -53 140 -127c0 -30 -11 -56 -30 -82l-126 -165h-37l96 128c-13 -4 -27 -6 -44 -6c-81 0 -139 51 -139 125s58 127 140 127zM265 505l3 4c16 17 24 40 24 64c0 59 -46 100 -109 100c-62 0 -109 -41 -109 -99c0 -59 47 -99 109 -99c35 0 64 11 82 30z
" />
    <glyph glyph-name="fraction" unicode="&#x2044;" horiz-adv-x="419" 
d="M449 680l-447 -680h-32l447 680h32z" />
    <glyph glyph-name="onehalf" unicode="&#xbd;" horiz-adv-x="844" 
d="M623 680h32l-447 -680h-32zM276 343v-27h-246v27h113v297l-105 -29v28l119 34h16v-330h103zM597 27h199v-27h-252v17l129 123c54 50 84 81 84 125c0 47 -34 82 -92 82c-55 0 -88 -31 -93 -78h-30c4 63 48 105 122 105c77 0 124 -47 124 -108c0 -47 -28 -83 -90 -141z" />
    <glyph glyph-name="onequarter" unicode="&#xbc;" horiz-adv-x="842" 
d="M622 680h32l-447 -680h-32zM276 343v-27h-246v27h113v297l-105 -29v28l119 34h16v-330h103zM794 110v-28h-65v-82h-29v82h-212v20l121 264h32l-115 -256h174v121h29v-121h65z" />
    <glyph glyph-name="threequarters" unicode="&#xbe;" horiz-adv-x="838" 
d="M314 416c0 -60 -52 -103 -131 -103c-77 0 -128 38 -135 94h31c7 -39 46 -66 105 -66s100 30 100 75c0 46 -38 76 -96 76h-33v25h33c50 0 84 31 84 74c0 45 -35 76 -92 76c-52 0 -85 -27 -91 -66h-30c6 56 51 93 120 93c75 0 122 -42 122 -103c0 -39 -20 -69 -54 -85
c42 -15 67 -47 67 -90zM621 680h32l-447 -680h-32zM790 110v-28h-65v-82h-29v82h-212v20l121 264h32l-115 -256h174v121h29v-121h65z" />
    <glyph glyph-name="oneeighth" unicode="&#x215b;" horiz-adv-x="761" 
d="M580 680h32l-447 -680h-32zM30 316v27h113v297l-105 -29v28l119 34h16v-330h103v-27h-246zM632 194c50 -15 80 -49 80 -94c0 -64 -56 -108 -143 -108c-85 0 -141 44 -141 108c0 45 30 79 80 94c-39 14 -63 42 -63 82c0 56 52 98 124 98c74 0 127 -42 127 -98
c0 -40 -25 -68 -64 -82zM475 275c0 -45 40 -72 94 -72c56 0 96 27 96 72c0 42 -40 74 -96 74c-54 0 -94 -32 -94 -74zM569 19c66 0 109 34 109 83c0 47 -43 79 -109 79c-64 0 -107 -32 -107 -79c0 -49 43 -83 107 -83z" />
    <glyph glyph-name="threeeighths" unicode="&#x215c;" horiz-adv-x="807" 
d="M314 416c0 -60 -52 -103 -131 -103c-77 0 -128 38 -135 94h31c7 -39 46 -66 105 -66s100 30 100 75c0 46 -38 76 -96 76h-33v25h33c50 0 84 31 84 74c0 45 -35 76 -92 76c-52 0 -85 -27 -91 -66h-30c6 56 51 93 120 93c75 0 122 -42 122 -103c0 -39 -20 -69 -54 -85
c42 -15 67 -47 67 -90zM621 680h32l-447 -680h-32zM678 194c50 -15 80 -49 80 -94c0 -64 -56 -108 -143 -108c-85 0 -141 44 -141 108c0 45 30 79 80 94c-39 14 -63 42 -63 82c0 56 52 98 124 98c74 0 127 -42 127 -98c0 -40 -25 -68 -64 -82zM521 275c0 -45 40 -72 94 -72
c56 0 96 27 96 72c0 42 -40 74 -96 74c-54 0 -94 -32 -94 -74zM615 19c66 0 109 34 109 83c0 47 -43 79 -109 79c-64 0 -107 -32 -107 -79c0 -49 43 -83 107 -83z" />
    <glyph glyph-name="fiveeighths" unicode="&#x215d;" horiz-adv-x="812" 
d="M311 428c0 -67 -48 -120 -130 -120c-81 0 -124 41 -137 105h31c11 -48 44 -78 106 -78c63 0 100 42 100 93c0 50 -35 84 -99 84l-85 -1h-29v171h229v-28h-200v-115h86c82 0 128 -45 128 -111zM613 680h32l-447 -680h-32zM684 194c50 -15 80 -49 80 -94
c0 -64 -56 -108 -143 -108c-85 0 -141 44 -141 108c0 45 30 79 80 94c-39 14 -63 42 -63 82c0 56 52 98 124 98c74 0 127 -42 127 -98c0 -40 -25 -68 -64 -82zM527 275c0 -45 40 -72 94 -72c56 0 96 27 96 72c0 42 -40 74 -96 74c-54 0 -94 -32 -94 -74zM621 19
c66 0 109 34 109 83c0 47 -43 79 -109 79c-64 0 -107 -32 -107 -79c0 -49 43 -83 107 -83z" />
    <glyph glyph-name="seveneighths" unicode="&#x215e;" horiz-adv-x="712" 
d="M98 316h-36l179 337h-221v29h262v-19zM512 680h32l-447 -680h-32zM583 194c50 -15 80 -49 80 -94c0 -64 -56 -108 -143 -108c-85 0 -141 44 -141 108c0 45 30 79 80 94c-39 14 -63 42 -63 82c0 56 52 98 124 98c74 0 127 -42 127 -98c0 -40 -25 -68 -64 -82zM426 275
c0 -45 40 -72 94 -72c56 0 96 27 96 72c0 42 -40 74 -96 74c-54 0 -94 -32 -94 -74zM520 19c66 0 109 34 109 83c0 47 -43 79 -109 79c-64 0 -107 -32 -107 -79c0 -49 43 -83 107 -83z" />
    <glyph glyph-name="asterisk" unicode="*" horiz-adv-x="397" 
d="M223 539l116 -69l-12 -21l-116 68v-125h-26v125l-115 -68l-12 21l116 69l-116 68l12 22l115 -68v122h26v-123l116 69l12 -22z" />
    <glyph glyph-name="backslash" unicode="\" horiz-adv-x="401" 
d="M46 730h35l274 -890h-35z" />
    <glyph glyph-name="periodcentered" unicode="&#xb7;" horiz-adv-x="155" 
d="M78 231c-17 0 -30 13 -30 30s13 30 30 30c16 0 30 -13 30 -30s-14 -30 -30 -30z" />
    <glyph glyph-name="bullet" unicode="&#x2022;" horiz-adv-x="309" 
d="M154 195c-55 0 -102 47 -102 102s47 102 102 102c56 0 103 -47 103 -102s-47 -102 -103 -102z" />
    <glyph glyph-name="colon" unicode=":" horiz-adv-x="155" 
d="M78 404c-17 0 -30 13 -30 30s13 30 30 30c16 0 30 -13 30 -30s-14 -30 -30 -30zM78 -8c-17 0 -30 13 -30 30s13 30 30 30c16 0 30 -13 30 -30s-14 -30 -30 -30z" />
    <glyph glyph-name="comma" unicode="," horiz-adv-x="183" 
d="M48 -152l49 148c-13 4 -21 13 -21 26c0 17 13 30 30 30c16 0 30 -13 30 -30c0 -7 -1 -11 -9 -33l-54 -141h-25z" />
    <glyph glyph-name="ellipsis" unicode="&#x2026;" horiz-adv-x="514" 
d="M78 -8c-17 0 -30 13 -30 30s13 30 30 30c16 0 30 -13 30 -30s-14 -30 -30 -30zM256 -8c-17 0 -30 13 -30 30s13 30 30 30c16 0 30 -13 30 -30s-14 -30 -30 -30zM437 -8c-17 0 -30 13 -30 30s13 30 30 30c16 0 30 -13 30 -30s-14 -30 -30 -30z" />
    <glyph glyph-name="exclam" unicode="!" horiz-adv-x="251" 
d="M144 680l-2 -513h-33l-2 513h37zM125 -8c-16 0 -30 13 -30 30s14 30 30 30c17 0 31 -13 31 -30s-14 -30 -31 -30z" />
    <glyph glyph-name="exclamdown" unicode="&#xa1;" horiz-adv-x="251" 
d="M125 469c17 0 31 -13 31 -30s-14 -30 -31 -30c-16 0 -30 13 -30 30s14 30 30 30zM144 -219h-37l2 513h33z" />
    <glyph glyph-name="numbersign" unicode="#" horiz-adv-x="718" 
d="M539 434l-59 -187h135v-29h-144l-68 -218h-35l68 218h-240l-68 -218h-35l68 218h-113v29h122l58 187h-125v29h134l69 218h35l-68 -218h239l69 218h35l-68 -218h122v-29h-131zM503 434h-239l-59 -187h240z" />
    <glyph glyph-name="period" unicode="." horiz-adv-x="155" 
d="M78 -8c-17 0 -30 13 -30 30s13 30 30 30c16 0 30 -13 30 -30s-14 -30 -30 -30z" />
    <glyph glyph-name="question" unicode="?" horiz-adv-x="590" 
d="M273 176h-31l-3 137h29c110 0 186 79 186 175s-76 172 -182 172c-78 0 -151 -48 -168 -125h-36c19 98 104 157 203 157c128 0 218 -89 218 -204c0 -113 -86 -202 -216 -203v-109zM257 -8c-17 0 -30 13 -30 30s13 30 30 30s30 -13 30 -30s-13 -30 -30 -30z" />
    <glyph glyph-name="questiondown" unicode="&#xbf;" horiz-adv-x="590" 
d="M333 549c17 0 30 -13 30 -30s-13 -30 -30 -30s-30 13 -30 30s13 30 30 30zM317 365h31l3 -137h-29c-110 0 -186 -79 -186 -175s76 -172 182 -172c78 0 151 48 168 125h36c-19 -98 -104 -157 -203 -157c-128 0 -218 89 -218 204c0 113 86 202 216 203v109z" />
    <glyph glyph-name="quotedbl" unicode="&#x22;" horiz-adv-x="314" 
d="M66 685h32v-261h-32v261zM216 685h32v-261h-32v261z" />
    <glyph glyph-name="quotesingle" unicode="'" horiz-adv-x="164" 
d="M66 685h32v-261h-32v261z" />
    <glyph glyph-name="semicolon" unicode=";" horiz-adv-x="183" 
d="M106 404c-17 0 -30 13 -30 30s13 30 30 30c16 0 30 -13 30 -30s-14 -30 -30 -30zM48 -152l49 148c-13 4 -21 13 -21 26c0 17 13 30 30 30c16 0 30 -13 30 -30c0 -7 -1 -11 -9 -33l-54 -141h-25z" />
    <glyph glyph-name="slash" unicode="/" horiz-adv-x="401" 
d="M359 730l-274 -890h-35l274 890h35z" />
    <glyph glyph-name="underscore" unicode="_" horiz-adv-x="663" 
d="M48 -181v31h568v-31h-568z" />
    <glyph glyph-name="backslash.case" horiz-adv-x="369" 
d="M287 -47l-241 777h36l242 -777h-37z" />
    <glyph glyph-name="periodcentered.case" horiz-adv-x="155" 
d="M78 305c-17 0 -30 13 -30 30s13 30 30 30c16 0 30 -13 30 -30s-14 -30 -30 -30z" />
    <glyph glyph-name="bullet.case" horiz-adv-x="309" 
d="M154 230c-55 0 -102 47 -102 102s47 102 102 102c56 0 103 -47 103 -102s-47 -102 -103 -102z" />
    <glyph glyph-name="exclamdown.case" horiz-adv-x="251" 
d="M125 688c17 0 31 -13 31 -30s-14 -30 -31 -30c-16 0 -30 13 -30 30s14 30 30 30zM144 0h-37l2 513h33z" />
    <glyph glyph-name="questiondown.case" horiz-adv-x="590" 
d="M333 688c17 0 30 -13 30 -30s-13 -30 -30 -30s-30 13 -30 30s13 30 30 30zM317 504h31l3 -137h-29c-110 0 -186 -79 -186 -175s76 -172 182 -172c78 0 151 48 168 125h36c-19 -98 -104 -157 -203 -157c-128 0 -218 89 -218 204c0 113 86 202 216 203v109z" />
    <glyph glyph-name="slash.case" horiz-adv-x="369" 
d="M82 -47h-37l242 777h36z" />
    <glyph glyph-name="braceleft" unicode="{" horiz-adv-x="357" 
d="M190 462c0 -85 -20 -131 -72 -150c52 -19 72 -65 72 -150v-114c0 -82 44 -135 111 -135v-34c-87 0 -146 67 -146 169v113c0 99 -31 135 -112 135v32c81 0 112 36 112 135v113c0 102 59 169 146 169v-33c-67 0 -111 -54 -111 -136v-114z" />
    <glyph glyph-name="braceright" unicode="}" horiz-adv-x="359" 
d="M169 462v114c0 82 -44 136 -111 136v33c87 0 146 -67 146 -169v-113c0 -99 31 -135 112 -135v-32c-81 0 -112 -36 -112 -135v-113c0 -102 -59 -169 -146 -169v34c67 0 111 53 111 135v114c0 85 20 131 72 150c-52 19 -72 65 -72 150z" />
    <glyph glyph-name="bracketleft" unicode="[" horiz-adv-x="333" 
d="M144 697v-778h133v-33h-168v844h168v-33h-133z" />
    <glyph glyph-name="bracketright" unicode="]" horiz-adv-x="333" 
d="M189 697h-133v33h168v-844h-168v33h133v778z" />
    <glyph glyph-name="parenleft" unicode="(" horiz-adv-x="333" 
d="M107 305c0 -177 62 -298 180 -395l-21 -24c-129 99 -194 240 -194 419c0 180 65 321 194 420l21 -24c-118 -97 -180 -218 -180 -396z" />
    <glyph glyph-name="parenright" unicode=")" horiz-adv-x="333" 
d="M67 725c129 -99 194 -240 194 -420c0 -179 -65 -320 -194 -419l-21 24c118 97 180 218 180 395c0 178 -62 299 -180 396z" />
    <glyph glyph-name="braceleft.case" horiz-adv-x="357" 
d="M190 494c0 -85 -20 -131 -72 -150c52 -19 72 -65 72 -150v-82c0 -82 44 -136 111 -136v-33c-87 0 -146 67 -146 169v81c0 99 -31 135 -112 135v32c81 0 112 36 112 135v81c0 102 59 169 146 169v-33c-67 0 -111 -54 -111 -136v-82z" />
    <glyph glyph-name="braceright.case" horiz-adv-x="359" 
d="M169 494v82c0 82 -44 136 -111 136v33c87 0 146 -67 146 -169v-81c0 -99 31 -135 112 -135v-32c-81 0 -112 -36 -112 -135v-81c0 -102 -59 -169 -146 -169v33c67 0 111 54 111 136v82c0 85 20 131 72 150c-52 19 -72 65 -72 150z" />
    <glyph glyph-name="bracketleft.case" horiz-adv-x="333" 
d="M144 697v-713h133v-33h-168v779h168v-33h-133z" />
    <glyph glyph-name="bracketright.case" horiz-adv-x="333" 
d="M189 697h-133v33h168v-779h-168v33h133v713z" />
    <glyph glyph-name="parenleft.case" horiz-adv-x="331" 
d="M108 329c0 -175 59 -266 177 -363l-21 -24c-129 99 -192 209 -192 387s63 297 192 396l21 -24c-118 -97 -177 -197 -177 -372z" />
    <glyph glyph-name="parenright.case" horiz-adv-x="331" 
d="M67 725c129 -99 192 -218 192 -396s-63 -288 -192 -387l-21 24c118 97 177 188 177 363s-59 275 -177 372z" />
    <glyph glyph-name="emdash" unicode="&#x2014;" horiz-adv-x="980" 
d="M126 262h728v32h-728v-32z" />
    <glyph glyph-name="endash" unicode="&#x2013;" horiz-adv-x="750" 
d="M126 262h497v32h-497v-32z" />
    <glyph glyph-name="hyphen" unicode="-" horiz-adv-x="571" 
d="M126 262h319v32h-319v-32z" />
    <glyph glyph-name="emdash.case" horiz-adv-x="980" 
d="M126 324h728v32h-728v-32z" />
    <glyph glyph-name="endash.case" horiz-adv-x="750" 
d="M126 323h497v32h-497v-32z" />
    <glyph glyph-name="hyphen.case" horiz-adv-x="571" 
d="M126 323h319v32h-319v-32z" />
    <glyph glyph-name="guillemotleft" unicode="&#xab;" horiz-adv-x="413" 
d="M174 397h38l-119 -145l119 -145h-38l-118 145zM320 397h38l-119 -145l119 -145h-38l-118 145z" />
    <glyph glyph-name="guillemotright" unicode="&#xbb;" horiz-adv-x="413" 
d="M93 397l118 -145l-118 -145h-38l119 145l-119 145h38zM239 397l118 -145l-118 -145h-38l119 145l-119 145h38z" />
    <glyph glyph-name="guilsinglleft" unicode="&#x2039;" horiz-adv-x="267" 
d="M174 397h38l-119 -145l119 -145h-38l-118 145z" />
    <glyph glyph-name="guilsinglright" unicode="&#x203a;" horiz-adv-x="267" 
d="M93 397l118 -145l-118 -145h-38l119 145l-119 145h38z" />
    <glyph glyph-name="quotedblbase" unicode="&#x201e;" horiz-adv-x="331" 
d="M48 -152l49 148c-13 4 -21 13 -21 26c0 17 13 30 30 30c16 0 30 -13 30 -30c0 -7 -1 -11 -9 -33l-54 -141h-25zM196 -152l49 148c-13 4 -21 13 -21 26c0 17 13 30 30 30c16 0 30 -13 30 -30c0 -7 -1 -11 -9 -33l-54 -141h-25z" />
    <glyph glyph-name="quotedblleft" unicode="&#x201c;" horiz-adv-x="329" 
d="M135 685l-49 -148c13 -4 21 -13 21 -26c0 -17 -13 -30 -30 -30c-16 0 -30 13 -30 30c0 7 1 11 9 33l54 141h25zM281 685l-49 -148c13 -4 21 -13 21 -26c0 -17 -13 -30 -30 -30c-16 0 -30 13 -30 30c0 7 1 11 9 33l54 141h25z" />
    <glyph glyph-name="quotedblright" unicode="&#x201d;" horiz-adv-x="330" 
d="M48 484l49 148c-13 4 -21 13 -21 26c0 17 13 30 30 30c16 0 30 -13 30 -30c0 -7 -1 -11 -9 -33l-54 -141h-25zM195 484l49 148c-13 4 -21 13 -21 26c0 17 13 30 30 30c16 0 30 -13 30 -30c0 -7 -1 -11 -9 -33l-54 -141h-25z" />
    <glyph glyph-name="quoteleft" unicode="&#x2018;" horiz-adv-x="183" 
d="M135 685l-49 -148c13 -4 21 -13 21 -26c0 -17 -13 -30 -30 -30c-16 0 -30 13 -30 30c0 7 1 11 9 33l54 141h25z" />
    <glyph glyph-name="quoteright" unicode="&#x2019;" horiz-adv-x="183" 
d="M48 484l49 148c-13 4 -21 13 -21 26c0 17 13 30 30 30c16 0 30 -13 30 -30c0 -7 -1 -11 -9 -33l-54 -141h-25z" />
    <glyph glyph-name="quotesinglbase" unicode="&#x201a;" horiz-adv-x="183" 
d="M48 -152l49 148c-13 4 -21 13 -21 26c0 17 13 30 30 30c16 0 30 -13 30 -30c0 -7 -1 -11 -9 -33l-54 -141h-25z" />
    <glyph glyph-name="guillemotleft.case" horiz-adv-x="413" 
d="M174 486h38l-119 -145l119 -145h-38l-118 145zM320 486h38l-119 -145l119 -145h-38l-118 145z" />
    <glyph glyph-name="guillemotright.case" horiz-adv-x="413" 
d="M93 486l118 -145l-118 -145h-38l119 145l-119 145h38zM239 486l118 -145l-118 -145h-38l119 145l-119 145h38z" />
    <glyph glyph-name="guilsinglleft.case" horiz-adv-x="267" 
d="M174 486h38l-119 -145l119 -145h-38l-118 145z" />
    <glyph glyph-name="guilsinglright.case" horiz-adv-x="267" 
d="M93 486l118 -145l-118 -145h-38l119 145l-119 145h38z" />
    <glyph glyph-name="space" unicode=" " horiz-adv-x="278" 
 />
    <glyph glyph-name="cent" unicode="&#xa2;" horiz-adv-x="581" 
d="M305 20c86 0 150 46 168 119h37c-19 -88 -92 -145 -190 -151v-125h-33v126c-128 8 -216 110 -216 238c0 127 88 229 216 237v135h33v-134c98 -6 171 -63 190 -150h-37c-18 72 -82 118 -168 118c-119 0 -199 -92 -199 -206s80 -207 199 -207z" />
    <glyph glyph-name="dollar" unicode="$" horiz-adv-x="655" 
d="M587 185c0 -115 -91 -190 -228 -197v-126h-33v126c-152 5 -244 82 -263 226h36c20 -126 100 -193 242 -193c126 0 209 63 209 161c0 71 -52 122 -149 139l-140 27c-109 21 -166 78 -166 163c0 110 93 181 231 181v133h33v-134c130 -10 209 -77 225 -183h-36
c-19 95 -90 152 -220 152c-117 0 -195 -57 -195 -149c0 -68 49 -113 142 -130l133 -26c114 -21 179 -80 179 -170z" />
    <glyph glyph-name="Euro" unicode="&#x20ac;" horiz-adv-x="898" 
d="M508 21c143 0 249 82 280 200h39c-34 -138 -156 -235 -319 -235c-162 0 -297 107 -339 255h-125v29h118c-5 23 -7 46 -7 70c0 17 1 34 4 51h-115v29h120c36 157 175 272 344 272c163 0 285 -95 319 -233h-39c-31 118 -137 199 -280 199c-149 0 -272 -100 -306 -238h367
l-7 -29h-366c-3 -17 -4 -34 -4 -51c0 -24 3 -48 7 -70h332l-7 -29h-317c41 -129 159 -220 301 -220z" />
    <glyph glyph-name="florin" unicode="&#x192;" horiz-adv-x="445" 
d="M349 652c-68 0 -104 -48 -113 -121l-23 -169h171v-31h-175l-32 -248c-12 -93 -59 -154 -146 -154c-22 0 -53 4 -85 12l7 30c26 -6 54 -10 75 -10c69 0 104 49 114 122l31 248h-130v31h134l23 169c13 92 59 154 146 154c23 0 53 -4 85 -12l-6 -30c-26 5 -54 9 -76 9z" />
    <glyph glyph-name="sterling" unicode="&#xa3;" horiz-adv-x="641" 
d="M171 288v-256h411v-32h-530v32h83v256h-83v32h83v150c0 133 91 222 227 222c125 0 212 -75 224 -192h-36c-12 97 -84 160 -188 160c-115 0 -191 -76 -191 -190v-150h262v-32h-262z" />
    <glyph glyph-name="uni20B9" unicode="&#x20b9;" horiz-adv-x="618" 
d="M544 680v-31h-230c64 -32 103 -88 108 -163h122v-31h-123c-8 -122 -110 -192 -258 -192h-35l319 -263h-52l-321 263v34h95c123 0 208 57 216 158h-300v31h301c-8 101 -93 161 -217 161h-95v33h470z" />
    <glyph glyph-name="yen" unicode="&#xa5;" horiz-adv-x="647" 
d="M342 253v-11h191v-30h-191v-79h191v-30h-191v-103h-37v103h-190v30h190v79h-190v30h190v11l-286 427h40l265 -393l264 393h41z" />
    <glyph glyph-name="cent.tf" horiz-adv-x="670" 
d="M346 20c86 0 150 46 168 119h37c-19 -88 -92 -145 -190 -151v-125h-33v126c-128 8 -216 110 -216 238c0 127 88 229 216 237v135h33v-134c98 -6 171 -63 190 -150h-37c-18 72 -82 118 -168 118c-119 0 -199 -92 -199 -206s80 -207 199 -207z" />
    <glyph glyph-name="dollar.tf" horiz-adv-x="670" 
d="M594 185c0 -115 -91 -190 -228 -197v-126h-33v126c-152 5 -244 82 -263 226h36c20 -126 100 -193 242 -193c126 0 209 63 209 161c0 71 -52 122 -149 139l-140 27c-109 21 -166 78 -166 163c0 110 93 181 231 181v133h33v-134c130 -10 209 -77 225 -183h-36
c-19 95 -90 152 -220 152c-117 0 -195 -57 -195 -149c0 -68 49 -113 142 -130l133 -26c114 -21 179 -80 179 -170z" />
    <glyph glyph-name="Euro.tf" horiz-adv-x="670" 
d="M387 21c71 0 128 23 160 70h46c-39 -66 -113 -103 -206 -103c-150 0 -249 98 -277 253h-59v29h54c-3 22 -4 46 -4 70c0 18 1 35 2 51h-52v29h55c24 167 125 272 281 272c101 0 179 -43 217 -120h-42c-33 57 -96 87 -175 87c-135 0 -221 -93 -243 -239h338l-7 -29h-335
c-1 -16 -2 -33 -2 -51c0 -24 1 -48 4 -70h302l-7 -29h-290c27 -135 111 -220 240 -220z" />
    <glyph glyph-name="florin.tf" horiz-adv-x="670" 
d="M490 652c-68 0 -104 -48 -113 -121l-23 -169h171v-31h-175l-32 -248c-12 -93 -59 -154 -146 -154c-22 0 -53 4 -85 12l7 30c26 -6 54 -10 75 -10c69 0 104 49 114 122l31 248h-130v31h134l23 169c13 92 59 154 146 154c23 0 53 -4 85 -12l-6 -30c-26 5 -54 9 -76 9z" />
    <glyph glyph-name="uni20B9.tf" horiz-adv-x="670" 
d="M590 680v-31h-230c64 -32 103 -88 108 -163h122v-31h-123c-8 -122 -110 -192 -258 -192h-35l319 -263h-52l-321 263v34h95c123 0 208 57 216 158h-300v31h301c-8 101 -93 161 -217 161h-95v33h470z" />
    <glyph glyph-name="sterling.tf" horiz-adv-x="670" 
d="M179 288v-256h411v-32h-530v32h83v256h-83v32h83v150c0 133 91 222 227 222c125 0 212 -75 224 -192h-36c-12 97 -84 160 -188 160c-115 0 -191 -76 -191 -190v-150h262v-32h-262z" />
    <glyph glyph-name="yen.tf" horiz-adv-x="670" 
d="M353 253v-11h191v-30h-191v-79h191v-30h-191v-103h-36v103h-191v30h191v79h-191v30h191v11l-238 427h41l215 -391l216 391h40z" />
    <glyph glyph-name="plus" unicode="+" horiz-adv-x="701" 
d="M574 301h-206v-206h-36v206h-206v33h206v206h36v-206h206v-33z" />
    <glyph glyph-name="minus" unicode="&#x2212;" horiz-adv-x="700" 
d="M126 301v33h447v-33h-447z" />
    <glyph glyph-name="multiply" unicode="&#xd7;" horiz-adv-x="654" 
d="M351 316l166 -166l-24 -24l-166 166l-166 -166l-24 24l166 166l-166 166l24 24l166 -166l166 166l24 -24z" />
    <glyph glyph-name="divide" unicode="&#xf7;" horiz-adv-x="700" 
d="M350 471c-17 0 -30 12 -30 29c0 16 13 29 30 29c16 0 30 -13 30 -29c0 -17 -14 -29 -30 -29zM126 301v33h447v-33h-447zM350 106c-17 0 -30 13 -30 29c0 17 13 30 30 30c16 0 30 -13 30 -30c0 -16 -14 -29 -30 -29z" />
    <glyph glyph-name="equal" unicode="=" horiz-adv-x="735" 
d="M608 440v-33h-482v33h482zM608 249v-34h-482v34h482z" />
    <glyph glyph-name="greater" unicode="&#x3e;" horiz-adv-x="560" 
d="M501 319v-37l-422 -207v36l383 189l-383 190v36z" />
    <glyph glyph-name="less" unicode="&#x3c;" horiz-adv-x="560" 
d="M59 319l422 207v-36l-383 -190l383 -189v-36l-422 207v37z" />
    <glyph glyph-name="plusminus" unicode="&#xb1;" horiz-adv-x="700" 
d="M573 358v-33h-205v-174h-36v174h-206v33h206v175h36v-175h205zM126 86h447v-34h-447v34z" />
    <glyph glyph-name="asciitilde" unicode="~" horiz-adv-x="468" 
d="M402 389c0 -94 -93 -107 -140 -75l-70 49c-36 25 -94 14 -94 -45h-32c0 93 94 105 140 74l70 -49c37 -24 94 -13 94 46h32z" />
    <glyph glyph-name="percent" unicode="%" horiz-adv-x="1083" 
d="M279 692c102 0 181 -79 181 -185c0 -107 -79 -186 -181 -186c-103 0 -182 79 -182 186c0 106 79 185 182 185zM778 680l-446 -680h-33l447 680h32zM279 352c84 0 151 66 151 155s-67 155 -151 155s-151 -66 -151 -155s67 -155 151 -155zM805 359c102 0 181 -79 181 -185
c0 -107 -79 -186 -181 -186c-103 0 -182 79 -182 186c0 106 79 185 182 185zM805 19c84 0 151 66 151 155s-67 155 -151 155s-151 -66 -151 -155s67 -155 151 -155z" />
    <glyph glyph-name="perthousand" unicode="&#x2030;" horiz-adv-x="1526" 
d="M279 692c102 0 181 -79 181 -185c0 -107 -79 -186 -181 -186c-103 0 -182 79 -182 186c0 106 79 185 182 185zM778 680l-447 -680h-32l447 680h32zM279 352c84 0 151 66 151 155s-67 155 -151 155s-151 -66 -151 -155s67 -155 151 -155zM805 359c102 0 181 -79 181 -185
c0 -107 -79 -186 -181 -186c-103 0 -182 79 -182 186c0 106 79 185 182 185zM1247 359c103 0 182 -79 182 -185c0 -107 -79 -186 -182 -186c-102 0 -181 79 -181 186c0 106 79 185 181 185zM805 19c84 0 151 66 151 155s-67 155 -151 155s-151 -66 -151 -155
s67 -155 151 -155zM1247 19c84 0 151 66 151 155s-67 155 -151 155s-151 -66 -151 -155s67 -155 151 -155z" />
    <glyph glyph-name="arrowup" unicode="&#x2191;" horiz-adv-x="785" 
d="M376 0v629l-307 -309l-24 24l348 348l347 -348l-23 -24l-307 309v-629h-34z" />
    <glyph glyph-name="uni2197" unicode="&#x2197;" horiz-adv-x="854" 
d="M81 21l626 625h-435l1 34h491v-491l-34 -1v435l-625 -626z" />
    <glyph glyph-name="arrowright" unicode="&#x2192;" horiz-adv-x="766" 
d="M40 325v34h629l-309 307l24 23l348 -347l-348 -348l-24 24l309 307h-629z" />
    <glyph glyph-name="uni2198" unicode="&#x2198;" horiz-adv-x="819" 
d="M46 659l24 24l625 -626v435l34 -1v-491h-491l-1 34h435z" />
    <glyph glyph-name="arrowdown" unicode="&#x2193;" horiz-adv-x="785" 
d="M376 680h34v-629l307 309l23 -24l-347 -348l-348 348l24 24l307 -309v629z" />
    <glyph glyph-name="uni2199" unicode="&#x2199;" horiz-adv-x="798" 
d="M773 659l-626 -625h435l-1 -34h-491v491l34 1v-435l625 626z" />
    <glyph glyph-name="arrowleft" unicode="&#x2190;" horiz-adv-x="766" 
d="M726 325h-629l309 -307l-24 -24l-348 348l348 347l24 -23l-309 -307h629v-34z" />
    <glyph glyph-name="uni2196" unicode="&#x2196;" horiz-adv-x="819" 
d="M773 21l-24 -24l-625 626v-435l-34 1v491h491l1 -34h-435z" />
    <glyph glyph-name="arrowup.ss05" horiz-adv-x="553" 
d="M178 588l240 -239l-239 -239l-23 22l217 217l-218 217z" />
    <glyph glyph-name="arrowright.ss05" horiz-adv-x="571" 
d="M398 566l-218 -217l217 -217l-23 -22l-239 239l240 239z" />
    <glyph glyph-name="arrowdown.ss05" horiz-adv-x="676" 
d="M555 433l22 -23l-239 -239l-239 240l22 23l217 -218z" />
    <glyph glyph-name="arrowleft.ss05" horiz-adv-x="676" 
d="M577 203l-22 -23l-217 217l-217 -218l-22 23l239 240z" />
    <glyph glyph-name="at" unicode="@" horiz-adv-x="984" 
d="M630 400h33v-208c0 -75 20 -121 82 -121c78 0 122 73 122 172c0 196 -172 358 -375 358c-201 0 -374 -159 -374 -366s173 -366 374 -366c90 0 176 32 242 87l19 -26c-71 -57 -163 -91 -261 -91c-221 0 -406 169 -406 396s186 396 406 396c223 0 406 -173 406 -387
c0 -111 -49 -203 -153 -203c-59 0 -89 29 -104 71c-36 -47 -88 -77 -154 -77c-105 0 -190 78 -190 192c0 113 85 191 190 191c59 0 108 -24 143 -63v45zM491 66c58 0 109 28 143 78c-3 16 -4 34 -4 52v118c-34 46 -82 73 -139 73c-88 0 -160 -63 -160 -160s72 -161 160 -161
z" />
    <glyph glyph-name="ampersand" unicode="&#x26;" horiz-adv-x="734" 
d="M697 0h-49l-119 102c-63 -75 -137 -114 -233 -114c-140 0 -231 80 -231 191c0 100 77 167 156 195c-53 55 -77 97 -77 153c0 99 75 168 183 168c97 0 173 -57 184 -167h-34c-11 90 -73 135 -150 135c-87 0 -147 -57 -147 -137c0 -88 73 -144 207 -259l138 -119l123 167
h37l-134 -185l-2 -3zM297 21c85 0 151 34 208 102l-145 125c-46 40 -84 73 -115 102c-82 -28 -145 -85 -145 -169c0 -93 76 -160 197 -160z" />
    <glyph glyph-name="paragraph" unicode="&#xb6;" horiz-adv-x="719" 
d="M282 680h342v-840h-37v808h-166v-808h-36v405h-103c-131 0 -236 87 -236 218c0 130 105 217 236 217zM385 648h-103c-110 0 -199 -74 -199 -185s89 -186 199 -186h103v371z" />
    <glyph glyph-name="section" unicode="&#xa7;" horiz-adv-x="540" 
d="M492 220c0 -69 -52 -108 -107 -122c39 -27 62 -60 62 -111c0 -90 -74 -145 -178 -145c-107 0 -181 58 -194 155h35c11 -77 71 -123 159 -123c82 0 142 39 142 114c0 60 -38 86 -137 133l-96 44c-87 41 -130 81 -130 147c0 69 52 108 107 122c-39 27 -63 60 -63 111
c0 90 74 145 179 145c107 0 181 -58 194 -155h-35c-11 77 -72 123 -159 123c-82 0 -142 -40 -142 -115c0 -59 37 -85 137 -132l96 -44c86 -41 130 -81 130 -147zM344 122c61 4 113 36 113 99c0 46 -29 79 -112 118l-91 42c-21 10 -40 19 -58 29c-61 -5 -113 -36 -113 -100
c0 -45 28 -78 112 -117l91 -42c21 -10 40 -19 58 -29z" />
    <glyph glyph-name="copyright" unicode="&#xa9;" horiz-adv-x="873" 
d="M436 695c198 0 364 -152 364 -355s-166 -355 -364 -355s-364 152 -364 355s166 355 364 355zM435 12c180 0 336 143 336 328s-156 328 -336 328c-179 0 -334 -143 -334 -328s155 -328 334 -328zM436 506c-89 0 -161 -74 -161 -166s72 -166 161 -166c70 0 129 43 146 105
h31c-19 -78 -92 -132 -177 -132c-104 0 -191 85 -191 193c0 107 87 193 191 193c85 0 158 -55 177 -132h-31c-17 62 -76 105 -146 105z" />
    <glyph glyph-name="registered" unicode="&#xae;" horiz-adv-x="546" 
d="M273 695c122 0 225 -94 225 -220c0 -125 -103 -219 -225 -219c-123 0 -225 94 -225 219c0 126 102 220 225 220zM273 279c106 0 199 86 199 196c0 111 -93 197 -199 197c-107 0 -200 -86 -200 -197c0 -110 93 -196 200 -196zM369 521c0 -42 -34 -70 -77 -73l82 -88h-28
l-80 88h-53v-88h-21v235h94c46 0 83 -30 83 -74zM213 575v-107h73c33 0 60 21 60 53c0 33 -27 54 -60 54h-73z" />
    <glyph glyph-name="uni2117" unicode="&#x2117;" horiz-adv-x="873" 
d="M436 695c198 0 364 -152 364 -355s-166 -355 -364 -355s-364 152 -364 355s166 355 364 355zM436 668c-179 0 -334 -143 -334 -328s155 -328 334 -328c180 0 335 143 335 328s-155 328 -335 328zM456 533c89 0 149 -48 149 -121c0 -72 -60 -119 -150 -119h-104v-143h-28
v383h133zM456 508h-105v-191h105c73 0 121 38 121 96c0 57 -48 95 -121 95z" />
    <glyph glyph-name="trademark" unicode="&#x2122;" horiz-adv-x="674" 
d="M273 679v-23h-113v-269h-25v269h-114v23h252zM621 679v-292h-25v243l-117 -200h-14l-117 199l1 -242h-25v292h23l125 -212l125 212h24z" />
    <glyph glyph-name="degree" unicode="&#xb0;" horiz-adv-x="498" 
d="M249 695c92 0 163 -69 163 -159s-71 -159 -163 -159s-163 69 -163 159s71 159 163 159zM249 407c72 0 131 57 131 129s-59 129 -131 129c-73 0 -131 -57 -131 -129s58 -129 131 -129z" />
    <glyph glyph-name="bar" unicode="|" horiz-adv-x="305" 
d="M135 730h35v-890h-35v890z" />
    <glyph glyph-name="brokenbar" unicode="&#xa6;" horiz-adv-x="305" 
d="M170 730v-394h-35v394h35zM170 234v-394h-35v394h35z" />
    <glyph glyph-name="dagger" unicode="&#x2020;" horiz-adv-x="405" 
d="M346 569h-130v-222h-29v222h-129v29h129v129h29v-129h130v-29z" />
    <glyph glyph-name="daggerdbl" unicode="&#x2021;" horiz-adv-x="405" 
d="M216 589v-93h130v-30h-130v-119h-29v119h-129v30h129v93h-129v29h129v109h29v-109h130v-29h-130z" />
    <glyph glyph-name="uni2116" unicode="&#x2116;" horiz-adv-x="1407" 
d="M632 56v624h37v-680h-38l-485 621v-621h-37v680h37zM1056 135c-136 0 -241 104 -241 239s105 238 241 238s241 -103 241 -238s-105 -239 -241 -239zM1056 580c-115 0 -206 -90 -206 -206c0 -117 91 -207 206 -207c116 0 206 90 206 207c0 116 -90 206 -206 206zM828 0v32
h457v-32h-457z" />
    <glyph glyph-name="asciicircum" unicode="^" horiz-adv-x="380" 
d="M206 680l136 -231h-34l-118 201l-118 -201h-34l136 231h32z" />
    <glyph glyph-name="at.case" horiz-adv-x="984" 
d="M630 470h33v-208c0 -75 20 -121 82 -121c78 0 122 73 122 172c0 196 -172 358 -375 358c-201 0 -374 -159 -374 -366s173 -366 374 -366c90 0 176 32 242 87l19 -26c-71 -57 -163 -91 -261 -91c-221 0 -406 169 -406 396s186 396 406 396c223 0 406 -173 406 -387
c0 -111 -49 -203 -153 -203c-59 0 -89 29 -104 71c-36 -47 -88 -77 -154 -77c-105 0 -190 78 -190 192c0 113 85 191 190 191c59 0 108 -24 143 -63v45zM491 136c58 0 109 28 143 78c-3 16 -4 34 -4 52v118c-34 46 -82 73 -139 73c-88 0 -160 -63 -160 -160
s72 -161 160 -161z" />
    <glyph glyph-name="bar.case" horiz-adv-x="305" 
d="M135 730h35v-777h-35v777z" />
    <glyph glyph-name="brokenbar.case" horiz-adv-x="305" 
d="M170 730v-338h-35v338h35zM170 290v-337h-35v337h35z" />
    <glyph glyph-name="registered.ss07" horiz-adv-x="873" 
d="M436 695c198 0 364 -152 364 -355s-166 -355 -364 -355s-364 152 -364 355s166 355 364 355zM436 12c180 0 335 143 335 328s-155 328 -335 328c-179 0 -334 -143 -334 -328s155 -328 334 -328zM593 412c0 -66 -50 -110 -127 -118l136 -144h-35l-133 143h-96v-143h-27
v383h133c89 0 149 -48 149 -121zM338 508v-191h105c73 0 122 38 122 96c0 57 -49 95 -122 95h-105z" />
    <glyph glyph-name="uni0326" unicode="&#x326;" horiz-adv-x="0" 
d="M-355 -230l37 95c-20 2 -28 14 -28 28c0 17 13 30 31 30c14 0 31 -10 31 -32c0 -15 -4 -22 -46 -121h-25z" />
    <glyph glyph-name="acute" unicode="&#xb4;" horiz-adv-x="600" 
d="M360 706h40l-89 -138h-36z" />
    <glyph glyph-name="breve" unicode="&#x2d8;" horiz-adv-x="600" 
d="M434 686c0 -86 -67 -128 -134 -128s-134 42 -134 128h30c0 -69 55 -101 104 -101s104 32 104 101h30z" />
    <glyph glyph-name="caron" unicode="&#x2c7;" horiz-adv-x="600" 
d="M409 709h38l-126 -139h-43l-125 139h38l109 -116z" />
    <glyph glyph-name="cedilla" unicode="&#xb8;" horiz-adv-x="600" 
d="M325 -82l-51 -136h-32l48 136h35z" />
    <glyph glyph-name="circumflex" unicode="&#x2c6;" horiz-adv-x="600" 
d="M409 570l-109 116l-109 -116h-38l125 139h43l126 -139h-38z" />
    <glyph glyph-name="dieresis" unicode="&#xa8;" horiz-adv-x="600" 
d="M214 634c18 0 32 -14 32 -31c0 -18 -14 -32 -32 -32s-32 14 -32 32c0 17 14 31 32 31zM386 634c18 0 32 -14 32 -31c0 -18 -14 -32 -32 -32s-32 14 -32 32c0 17 14 31 32 31z" />
    <glyph glyph-name="dotaccent" unicode="&#x2d9;" horiz-adv-x="600" 
d="M300 571c-18 0 -32 14 -32 32c0 17 14 31 32 31s32 -14 32 -31c0 -18 -14 -32 -32 -32z" />
    <glyph glyph-name="grave" unicode="`" horiz-adv-x="600" 
d="M258 706l85 -138h-36l-89 138h40z" />
    <glyph glyph-name="hungarumlaut" unicode="&#x2dd;" horiz-adv-x="600" 
d="M298 706h38l-86 -138h-34zM425 706h38l-86 -138h-34z" />
    <glyph glyph-name="macron" unicode="&#xaf;" horiz-adv-x="600" 
d="M161 617h276v-29h-276v29z" />
    <glyph glyph-name="ogonek" unicode="&#x2db;" horiz-adv-x="600" 
d="M361 -6c-46 -20 -95 -47 -95 -98c0 -44 35 -70 90 -70c11 0 21 1 30 2l3 -30c-9 -3 -25 -4 -38 -4c-70 0 -118 39 -118 98c0 68 66 106 118 126z" />
    <glyph glyph-name="ring" unicode="&#x2da;" horiz-adv-x="600" 
d="M300 741c51 0 90 -37 90 -88s-39 -89 -90 -89c-52 0 -91 38 -91 89s39 88 91 88zM300 588c36 0 65 28 65 65c0 35 -29 64 -65 64c-37 0 -65 -29 -65 -64c0 -37 28 -65 65 -65z" />
    <glyph glyph-name="tilde" unicode="&#x2dc;" horiz-adv-x="600" 
d="M434 679c0 -81 -74 -100 -129 -61l-39 27c-38 28 -87 16 -87 -33h-30c0 81 81 93 129 60l38 -27c45 -31 88 -16 88 34h30z" />
    <glyph glyph-name="caron.alt" horiz-adv-x="600" 
d="M276 680h36l-20 -174h-29z" />
    <glyph glyph-name="acute.case" horiz-adv-x="600" 
d="M360 892h40l-89 -138h-36z" />
    <glyph glyph-name="breve.case" horiz-adv-x="600" 
d="M434 892c0 -86 -67 -128 -134 -128s-134 42 -134 128h30c0 -69 55 -101 104 -101s104 32 104 101h30z" />
    <glyph glyph-name="caron.case" horiz-adv-x="600" 
d="M409 895h38l-126 -139h-43l-125 139h38l109 -116z" />
    <glyph glyph-name="circumflex.case" horiz-adv-x="600" 
d="M409 756l-109 116l-109 -116h-38l125 139h43l126 -139h-38z" />
    <glyph glyph-name="dieresis.case" horiz-adv-x="600" 
d="M214 840c18 0 32 -14 32 -31c0 -18 -14 -32 -32 -32s-32 14 -32 32c0 17 14 31 32 31zM386 840c18 0 32 -14 32 -31c0 -18 -14 -32 -32 -32s-32 14 -32 32c0 17 14 31 32 31z" />
    <glyph glyph-name="dotaccent.case" horiz-adv-x="600" 
d="M300 777c-18 0 -32 14 -32 32c0 17 14 31 32 31s32 -14 32 -31c0 -18 -14 -32 -32 -32z" />
    <glyph glyph-name="grave.case" horiz-adv-x="600" 
d="M258 892l85 -138h-36l-89 138h40z" />
    <glyph glyph-name="hungarumlaut.case" horiz-adv-x="600" 
d="M298 892h38l-86 -138h-34zM425 892h38l-86 -138h-34z" />
    <glyph glyph-name="macron.case" horiz-adv-x="600" 
d="M161 803h276v-29h-276v29z" />
    <glyph glyph-name="ring.case" horiz-adv-x="600" 
d="M300 947c51 0 90 -37 90 -88s-39 -89 -90 -89c-52 0 -91 38 -91 89s39 88 91 88zM300 794c36 0 65 28 65 65c0 35 -29 64 -65 64c-37 0 -65 -29 -65 -64c0 -37 28 -65 65 -65z" />
    <glyph glyph-name="tilde.case" horiz-adv-x="600" 
d="M434 865c0 -81 -74 -100 -129 -61l-39 27c-38 28 -87 16 -87 -33h-30c0 81 81 93 129 60l38 -27c45 -31 88 -16 88 34h30z" />
    </font>
</defs>
</svg>
