<?xml version="1.0" standalone="no"?>
<!DOCTYPE svg PUBLIC "-//W3C//DTD SVG 1.1//EN" "http://www.w3.org/Graphics/SVG/1.1/DTD/svg11.dtd" >
<svg xmlns="http://www.w3.org/2000/svg" xmlns:xlink="http://www.w3.org/1999/xlink" version="1.1">
<metadata>
Created by FontForge 20191125 at Thu Dec 21 21:57:43 2017
 By convertio
Copyright \(c\) 2017 by Ren_ Bieder. All rights reserved.
</metadata>
<defs>
<font id="Campton-Medium" horiz-adv-x="600" >
  <font-face 
    font-family="Campton Medium"
    font-weight="500"
    font-stretch="normal"
    units-per-em="1000"
    panose-1="2 11 0 4 2 1 2 2 2 3"
    ascent="770"
    descent="-230"
    x-height="470"
    cap-height="680"
    bbox="-367 -245 1457 971"
    underline-thickness="50"
    underline-position="-100"
    stemh="94"
    stemv="107"
    unicode-range="U+0020-FB02"
  />
<missing-glyph horiz-adv-x="870" 
d="M100 680h670v-680h-670v680zM700 129v481h-481zM170 547v-477h477z" />
    <glyph glyph-name="fi" unicode="fi" horiz-adv-x="677" 
d="M604 470v-470h-103v383h-260v-383h-103v383h-133v87h133v63c0 117 81 189 192 189c31 0 62 -5 99 -15l-15 -84c-25 5 -53 9 -72 9c-61 0 -101 -38 -101 -99v-63h363z" />
    <glyph glyph-name="fl" unicode="fl" horiz-adv-x="677" 
d="M501 710h104v-710h-104v383h-260v-383h-103v383h-133v87h133v63c0 117 81 189 192 189c31 0 62 -5 99 -15l-15 -88c-25 8 -53 13 -72 13c-61 0 -101 -38 -101 -99v-63h260v240z" />
    <glyph glyph-name=".notdef" horiz-adv-x="870" 
d="M100 680h670v-680h-670v680zM700 129v481h-481zM170 547v-477h477z" />
    <glyph glyph-name="A" unicode="A" horiz-adv-x="749" 
d="M611 0l-70 163h-332l-70 -163h-115l301 680h101l300 -680h-115zM249 259h251l-125 293z" />
    <glyph glyph-name="Aacute" unicode="&#xc1;" horiz-adv-x="749" 
d="M516 904l-97 -147h-95l77 147h115zM611 0l-70 163h-332l-70 -163h-115l301 680h101l300 -680h-115zM249 259h251l-125 293z" />
    <glyph glyph-name="Abreve" unicode="&#x102;" horiz-adv-x="749" 
d="M375 760c-85 0 -152 50 -152 150h77c0 -59 36 -80 75 -80c38 0 76 21 76 80h76c0 -100 -66 -150 -152 -150zM611 0l-70 163h-332l-70 -163h-115l301 680h101l300 -680h-115zM249 259h251l-125 293z" />
    <glyph glyph-name="uni01CD" unicode="&#x1cd;" horiz-adv-x="749" 
d="M424 750h-100l-120 151h98l73 -85l72 85h98zM611 0l-70 163h-332l-70 -163h-115l301 680h101l300 -680h-115zM249 259h251l-125 293z" />
    <glyph glyph-name="Acircumflex" unicode="&#xc2;" horiz-adv-x="749" 
d="M375 842l-73 -85h-98l120 151h100l121 -151h-98zM611 0l-70 163h-332l-70 -163h-115l301 680h101l300 -680h-115zM249 259h251l-125 293z" />
    <glyph glyph-name="Adieresis" unicode="&#xc4;" horiz-adv-x="749" 
d="M273 758c-37 0 -67 29 -67 65c0 37 30 65 67 65s67 -28 67 -65c0 -36 -30 -65 -67 -65zM476 758c-37 0 -67 29 -67 65c0 37 30 65 67 65s67 -28 67 -65c0 -36 -30 -65 -67 -65zM611 0l-70 163h-332l-70 -163h-115l301 680h101l300 -680h-115zM249 259h251l-125 293z" />
    <glyph glyph-name="Agrave" unicode="&#xc0;" horiz-adv-x="749" 
d="M434 757h-95l-97 147h115zM611 0l-70 163h-332l-70 -163h-115l301 680h101l300 -680h-115zM249 259h251l-125 293z" />
    <glyph glyph-name="Amacron" unicode="&#x100;" horiz-adv-x="749" 
d="M514 847v-85h-279v85h279zM611 0l-70 163h-332l-70 -163h-115l301 680h101l300 -680h-115zM249 259h251l-125 293z" />
    <glyph glyph-name="Aogonek" unicode="&#x104;" horiz-adv-x="749" 
d="M730 -88l10 -77c-12 -5 -39 -10 -63 -10c-83 0 -139 44 -139 111c0 37 23 68 62 90l-59 137h-332l-70 -163h-115l301 680h101l300 -680h-45c-37 -10 -56 -27 -56 -53c0 -25 22 -40 65 -40c14 0 25 2 40 5zM249 259h251l-125 293z" />
    <glyph glyph-name="Aring" unicode="&#xc5;" horiz-adv-x="749" 
d="M375 766c-65 0 -109 42 -109 103s44 102 109 102s109 -41 109 -102s-44 -103 -109 -103zM375 917c-29 0 -49 -20 -49 -48c0 -29 20 -49 49 -49s49 20 49 49c0 28 -20 48 -49 48zM611 0l-70 163h-332l-70 -163h-115l301 680h101l300 -680h-115zM249 259h251l-125 293z" />
    <glyph glyph-name="Atilde" unicode="&#xc3;" horiz-adv-x="749" 
d="M339 810c-35 23 -55 1 -55 -26h-84c0 115 101 139 161 103l46 -28c37 -23 55 -1 55 27h84c0 -116 -98 -142 -161 -104zM611 0l-70 163h-332l-70 -163h-115l301 680h101l300 -680h-115zM249 259h251l-125 293z" />
    <glyph glyph-name="AE" unicode="&#xc6;" horiz-adv-x="1074" 
d="M1023 581h-380v-195h340v-99h-340v-187h380v-100h-488v163h-262l-117 -163h-132l500 680h499v-99zM345 263h190v264z" />
    <glyph glyph-name="B" unicode="B" horiz-adv-x="685" 
d="M497 352c93 -18 137 -85 137 -166c0 -111 -96 -186 -247 -186h-306v680h295c141 0 225 -67 225 -175c0 -71 -39 -131 -104 -153zM364 585h-175v-200h170c91 0 141 43 141 106c0 59 -49 94 -136 94zM383 95c94 0 145 46 145 104c0 61 -54 97 -141 97h-198v-201h194z" />
    <glyph glyph-name="C" unicode="C" horiz-adv-x="800" 
d="M412 88c113 0 191 64 218 170h111c-32 -163 -159 -271 -329 -271c-196 0 -353 150 -353 353c0 204 157 352 353 352c170 0 297 -106 329 -269h-111c-27 105 -105 169 -218 169c-139 0 -244 -105 -244 -252c0 -146 105 -252 244 -252z" />
    <glyph glyph-name="Cacute" unicode="&#x106;" horiz-adv-x="800" 
d="M554 904l-97 -147h-95l77 147h115zM412 88c113 0 191 64 218 170h111c-32 -163 -159 -271 -329 -271c-196 0 -353 150 -353 353c0 204 157 352 353 352c170 0 297 -106 329 -269h-111c-27 105 -105 169 -218 169c-139 0 -244 -105 -244 -252c0 -146 105 -252 244 -252z
" />
    <glyph glyph-name="Ccaron" unicode="&#x10c;" horiz-adv-x="800" 
d="M462 750h-100l-120 151h98l73 -85l72 85h98zM412 88c113 0 191 64 218 170h111c-32 -163 -159 -271 -329 -271c-196 0 -353 150 -353 353c0 204 157 352 353 352c170 0 297 -106 329 -269h-111c-27 105 -105 169 -218 169c-139 0 -244 -105 -244 -252
c0 -146 105 -252 244 -252z" />
    <glyph glyph-name="Ccedilla" unicode="&#xc7;" horiz-adv-x="800" 
d="M412 88c113 0 191 64 218 170h111c-32 -163 -159 -271 -329 -271c-196 0 -353 150 -353 353c0 204 157 352 353 352c170 0 297 -106 329 -269h-111c-27 105 -105 169 -218 169c-139 0 -244 -105 -244 -252c0 -146 105 -252 244 -252zM312 -212l44 153h103l-57 -153h-90z
" />
    <glyph glyph-name="Cdotaccent" unicode="&#x10a;" horiz-adv-x="800" 
d="M413 758c-37 0 -67 29 -67 65c0 37 30 65 67 65s67 -28 67 -65c0 -36 -30 -65 -67 -65zM412 88c113 0 191 64 218 170h111c-32 -163 -159 -271 -329 -271c-196 0 -353 150 -353 353c0 204 157 352 353 352c170 0 297 -106 329 -269h-111c-27 105 -105 169 -218 169
c-139 0 -244 -105 -244 -252c0 -146 105 -252 244 -252z" />
    <glyph glyph-name="D" unicode="D" horiz-adv-x="751" 
d="M332 680c209 0 361 -142 361 -336c0 -199 -152 -344 -361 -344h-251v680h251zM332 100c143 0 252 104 252 244c0 135 -109 237 -252 237h-143v-481h143z" />
    <glyph glyph-name="Eth" unicode="&#xd0;" horiz-adv-x="744" 
d="M332 680c209 0 361 -142 361 -336c0 -199 -152 -344 -361 -344h-251v292h-66v92h66v296h251zM332 100c143 0 252 104 252 244c0 135 -109 237 -252 237h-143v-197h146v-92h-146v-192h143z" />
    <glyph glyph-name="Dcaron" unicode="&#x10e;" horiz-adv-x="751" 
d="M391 750h-100l-120 151h98l73 -85l72 85h98zM332 680c209 0 361 -142 361 -336c0 -199 -152 -344 -361 -344h-251v680h251zM332 100c143 0 252 104 252 244c0 135 -109 237 -252 237h-143v-481h143z" />
    <glyph glyph-name="Dcroat" unicode="&#x110;" horiz-adv-x="744" 
d="M332 680c209 0 361 -142 361 -336c0 -199 -152 -344 -361 -344h-251v292h-66v92h66v296h251zM332 100c143 0 252 104 252 244c0 135 -109 237 -252 237h-143v-197h146v-92h-146v-192h143z" />
    <glyph glyph-name="E" unicode="E" horiz-adv-x="621" 
d="M569 581h-380v-195h340v-99h-340v-187h380v-100h-488v680h488v-99z" />
    <glyph glyph-name="Eacute" unicode="&#xc9;" horiz-adv-x="621" 
d="M463 904l-97 -147h-95l77 147h115zM569 581h-380v-195h340v-99h-340v-187h380v-100h-488v680h488v-99z" />
    <glyph glyph-name="Ecaron" unicode="&#x11a;" horiz-adv-x="621" 
d="M371 750h-100l-120 151h98l73 -85l72 85h98zM569 581h-380v-195h340v-99h-340v-187h380v-100h-488v680h488v-99z" />
    <glyph glyph-name="Ecircumflex" unicode="&#xca;" horiz-adv-x="621" 
d="M322 842l-73 -85h-98l120 151h100l121 -151h-98zM569 581h-380v-195h340v-99h-340v-187h380v-100h-488v680h488v-99z" />
    <glyph glyph-name="Edieresis" unicode="&#xcb;" horiz-adv-x="621" 
d="M220 758c-37 0 -67 29 -67 65c0 37 30 65 67 65s67 -28 67 -65c0 -36 -30 -65 -67 -65zM423 758c-37 0 -67 29 -67 65c0 37 30 65 67 65s67 -28 67 -65c0 -36 -30 -65 -67 -65zM569 581h-380v-195h340v-99h-340v-187h380v-100h-488v680h488v-99z" />
    <glyph glyph-name="Edotaccent" unicode="&#x116;" horiz-adv-x="621" 
d="M322 758c-37 0 -67 29 -67 65c0 37 30 65 67 65s67 -28 67 -65c0 -36 -30 -65 -67 -65zM569 581h-380v-195h340v-99h-340v-187h380v-100h-488v680h488v-99z" />
    <glyph glyph-name="Egrave" unicode="&#xc8;" horiz-adv-x="621" 
d="M381 757h-95l-97 147h115zM569 581h-380v-195h340v-99h-340v-187h380v-100h-488v680h488v-99z" />
    <glyph glyph-name="Emacron" unicode="&#x112;" horiz-adv-x="621" 
d="M461 847v-85h-279v85h279zM569 581h-380v-195h340v-99h-340v-187h380v-100h-488v680h488v-99z" />
    <glyph glyph-name="Eogonek" unicode="&#x118;" horiz-adv-x="621" 
d="M601 -92l10 -77c-12 -5 -39 -10 -63 -10c-83 0 -139 44 -139 111c0 26 11 49 32 68h-360v680h488v-99h-380v-195h340v-99h-340v-187h380v-100c-48 -10 -73 -27 -73 -57c0 -25 22 -40 65 -40c14 0 25 2 40 5z" />
    <glyph glyph-name="F" unicode="F" horiz-adv-x="590" 
d="M562 581h-373v-213h329v-99h-329v-269h-108v680h481v-99z" />
    <glyph glyph-name="G" unicode="G" horiz-adv-x="823" 
d="M403 369h346v-369h-85l-8 117c-48 -79 -129 -129 -245 -129c-203 0 -352 156 -352 345c0 211 159 359 357 359c147 0 287 -81 327 -243h-115c-35 105 -130 143 -210 143c-143 0 -250 -105 -250 -259c0 -131 98 -244 243 -244c120 0 197 76 221 180h-229v100z" />
    <glyph glyph-name="Gbreve" unicode="&#x11e;" horiz-adv-x="823" 
d="M414 760c-85 0 -152 50 -152 150h77c0 -59 36 -80 75 -80c38 0 76 21 76 80h76c0 -100 -66 -150 -152 -150zM403 369h346v-369h-85l-8 117c-48 -79 -129 -129 -245 -129c-203 0 -352 156 -352 345c0 211 159 359 357 359c147 0 287 -81 327 -243h-115
c-35 105 -130 143 -210 143c-143 0 -250 -105 -250 -259c0 -131 98 -244 243 -244c120 0 197 76 221 180h-229v100z" />
    <glyph glyph-name="Gcommaaccent" unicode="&#x122;" horiz-adv-x="823" 
d="M403 369h346v-369h-85l-8 117c-48 -79 -129 -129 -245 -129c-203 0 -352 156 -352 345c0 211 159 359 357 359c147 0 287 -81 327 -243h-115c-35 105 -130 143 -210 143c-143 0 -250 -105 -250 -259c0 -131 98 -244 243 -244c120 0 197 76 221 180h-229v100zM409 -54
c34 0 62 -25 62 -59c0 -24 -5 -31 -62 -132h-59l37 81c-26 9 -39 29 -39 52c0 32 28 58 61 58z" />
    <glyph glyph-name="Gdotaccent" unicode="&#x120;" horiz-adv-x="823" 
d="M414 758c-37 0 -67 29 -67 65c0 37 30 65 67 65s67 -28 67 -65c0 -36 -30 -65 -67 -65zM403 369h346v-369h-85l-8 117c-48 -79 -129 -129 -245 -129c-203 0 -352 156 -352 345c0 211 159 359 357 359c147 0 287 -81 327 -243h-115c-35 105 -130 143 -210 143
c-143 0 -250 -105 -250 -259c0 -131 98 -244 243 -244c120 0 197 76 221 180h-229v100z" />
    <glyph glyph-name="H" unicode="H" horiz-adv-x="734" 
d="M546 680h107v-680h-107v284h-357v-284h-108v680h108v-296h357v296z" />
    <glyph glyph-name="Hbar" unicode="&#x126;" horiz-adv-x="734" 
d="M698 570v-81h-45v-489h-107v284h-357v-284h-108v489h-52v81h52v110h108v-110h357v110h107v-110h45zM546 384v105h-357v-105h357z" />
    <glyph glyph-name="I" unicode="I" horiz-adv-x="270" 
d="M81 680h108v-680h-108v680z" />
    <glyph glyph-name="IJ" unicode="&#x132;" horiz-adv-x="865" 
d="M81 680h108v-680h-108v680zM794 680v-429c0 -170 -101 -263 -259 -263c-138 0 -239 82 -250 223h109c8 -81 68 -123 148 -123c83 0 143 59 143 166v426h109z" />
    <glyph glyph-name="Iacute" unicode="&#xcd;" horiz-adv-x="270" 
d="M161 904h115l-97 -147h-95zM81 680h108v-680h-108v680z" />
    <glyph glyph-name="Icircumflex" unicode="&#xce;" horiz-adv-x="270" 
d="M207 757l-72 85l-73 -85h-98l120 151h100l121 -151h-98zM81 680h108v-680h-108v680z" />
    <glyph glyph-name="Idieresis" unicode="&#xcf;" horiz-adv-x="270" 
d="M33 888c37 0 67 -28 67 -65c0 -36 -30 -65 -67 -65s-67 29 -67 65c0 37 30 65 67 65zM236 888c37 0 67 -28 67 -65c0 -36 -30 -65 -67 -65s-67 29 -67 65c0 37 30 65 67 65zM81 680h108v-680h-108v680z" />
    <glyph glyph-name="Idotaccent" unicode="&#x130;" horiz-adv-x="270" 
d="M135 761c-38 0 -69 30 -69 67c0 39 31 68 69 68c39 0 70 -29 70 -68c0 -37 -31 -67 -70 -67zM81 680h108v-680h-108v680z" />
    <glyph glyph-name="Igrave" unicode="&#xcc;" horiz-adv-x="270" 
d="M117 904l77 -147h-95l-97 147h115zM81 680h108v-680h-108v680z" />
    <glyph glyph-name="Imacron" unicode="&#x12a;" horiz-adv-x="270" 
d="M-5 847h279v-85h-279v85zM81 680h108v-680h-108v680z" />
    <glyph glyph-name="Iogonek" unicode="&#x12e;" horiz-adv-x="270" 
d="M220 -92l10 -77c-12 -5 -39 -10 -63 -10c-83 0 -139 44 -139 111c0 34 20 63 53 84v664h108v-680h-1c-48 -10 -73 -27 -73 -57c0 -25 22 -40 65 -40c14 0 25 2 40 5z" />
    <glyph glyph-name="J" unicode="J" horiz-adv-x="595" 
d="M524 680v-429c0 -170 -101 -263 -259 -263c-138 0 -239 82 -250 223h109c8 -81 68 -123 148 -123c83 0 143 59 143 166v426h109z" />
    <glyph glyph-name="K" unicode="K" horiz-adv-x="709" 
d="M554 0l-243 297l-122 -132v-165h-108v680h108v-368l342 368h130l-278 -304l309 -376h-138z" />
    <glyph glyph-name="Kcommaaccent" unicode="&#x136;" horiz-adv-x="709" 
d="M383 376l309 -376h-138l-243 297l-122 -132v-165h-108v680h108v-368l342 368h130zM351 -54c34 0 62 -25 62 -59c0 -24 -5 -31 -62 -132h-59l37 81c-26 9 -39 29 -39 52c0 32 28 58 61 58z" />
    <glyph glyph-name="L" unicode="L" horiz-adv-x="579" 
d="M189 100h363v-100h-471v680h108v-580z" />
    <glyph glyph-name="Lacute" unicode="&#x139;" horiz-adv-x="579" 
d="M275 904l-97 -147h-95l77 147h115zM189 100h363v-100h-471v680h108v-580z" />
    <glyph glyph-name="Lcaron" unicode="&#x13d;" horiz-adv-x="579" 
d="M189 100h363v-100h-471v680h108v-580zM434 680l-33 -195h-79l7 195h105z" />
    <glyph glyph-name="Lcommaaccent" unicode="&#x13b;" horiz-adv-x="579" 
d="M189 100h363v-100h-471v680h108v-580zM327 -54c34 0 62 -25 62 -59c0 -24 -5 -31 -62 -132h-59l37 81c-26 9 -39 29 -39 52c0 32 28 58 61 58z" />
    <glyph glyph-name="Ldot" unicode="&#x13f;" horiz-adv-x="579" 
d="M189 100h363v-100h-471v680h108v-580zM385 272c-37 0 -67 29 -67 65c0 37 30 65 67 65s67 -28 67 -65c0 -36 -30 -65 -67 -65z" />
    <glyph glyph-name="Lslash" unicode="&#x141;" horiz-adv-x="579" 
d="M189 100h363v-100h-471v244l-66 -29v91l66 29v345h108v-299l161 70v-91l-161 -70v-190z" />
    <glyph glyph-name="M" unicode="M" horiz-adv-x="849" 
d="M767 680v-680h-107v443l-202 -328h-67l-204 331l2 -446h-108v680h78l265 -432l265 432h78z" />
    <glyph glyph-name="N" unicode="N" horiz-adv-x="757" 
d="M569 680h107v-680h-86l-401 480v-480h-108v680h83l405 -490v490z" />
    <glyph glyph-name="Nacute" unicode="&#x143;" horiz-adv-x="757" 
d="M520 904l-97 -147h-95l77 147h115zM569 680h107v-680h-86l-401 480v-480h-108v680h83l405 -490v490z" />
    <glyph glyph-name="Ncaron" unicode="&#x147;" horiz-adv-x="757" 
d="M428 750h-100l-120 151h98l73 -85l72 85h98zM569 680h107v-680h-86l-401 480v-480h-108v680h83l405 -490v490z" />
    <glyph glyph-name="Ncommaaccent" unicode="&#x145;" horiz-adv-x="757" 
d="M569 680h107v-680h-86l-401 480v-480h-108v680h83l405 -490v490zM371 -54c34 0 62 -25 62 -59c0 -24 -5 -31 -62 -132h-59l37 81c-26 9 -39 29 -39 52c0 32 28 58 61 58z" />
    <glyph glyph-name="Ntilde" unicode="&#xd1;" horiz-adv-x="757" 
d="M343 810c-35 23 -55 1 -55 -26h-84c0 115 101 139 161 103l46 -28c37 -23 55 -1 55 27h84c0 -116 -98 -142 -161 -104zM569 680h107v-680h-86l-401 480v-480h-108v680h83l405 -490v490z" />
    <glyph glyph-name="O" unicode="O" horiz-adv-x="825" 
d="M413 692c196 0 354 -156 354 -352s-158 -352 -354 -352s-354 156 -354 352s158 352 354 352zM413 89c139 0 245 112 245 251s-106 252 -245 252s-245 -113 -245 -252s106 -251 245 -251z" />
    <glyph glyph-name="Oacute" unicode="&#xd3;" horiz-adv-x="825" 
d="M439 904h115l-97 -147h-95zM413 692c196 0 354 -156 354 -352s-158 -352 -354 -352s-354 156 -354 352s158 352 354 352zM413 89c139 0 245 112 245 251s-106 252 -245 252s-245 -113 -245 -252s106 -251 245 -251z" />
    <glyph glyph-name="Ocircumflex" unicode="&#xd4;" horiz-adv-x="825" 
d="M485 757l-72 85l-73 -85h-98l120 151h100l121 -151h-98zM413 692c196 0 354 -156 354 -352s-158 -352 -354 -352s-354 156 -354 352s158 352 354 352zM413 89c139 0 245 112 245 251s-106 252 -245 252s-245 -113 -245 -252s106 -251 245 -251z" />
    <glyph glyph-name="Odieresis" unicode="&#xd6;" horiz-adv-x="825" 
d="M311 888c37 0 67 -28 67 -65c0 -36 -30 -65 -67 -65s-67 29 -67 65c0 37 30 65 67 65zM514 888c37 0 67 -28 67 -65c0 -36 -30 -65 -67 -65s-67 29 -67 65c0 37 30 65 67 65zM413 692c196 0 354 -156 354 -352s-158 -352 -354 -352s-354 156 -354 352s158 352 354 352z
M413 89c139 0 245 112 245 251s-106 252 -245 252s-245 -113 -245 -252s106 -251 245 -251z" />
    <glyph glyph-name="Ograve" unicode="&#xd2;" horiz-adv-x="825" 
d="M395 904l77 -147h-95l-97 147h115zM413 692c196 0 354 -156 354 -352s-158 -352 -354 -352s-354 156 -354 352s158 352 354 352zM413 89c139 0 245 112 245 251s-106 252 -245 252s-245 -113 -245 -252s106 -251 245 -251z" />
    <glyph glyph-name="Ohungarumlaut" unicode="&#x150;" horiz-adv-x="825" 
d="M354 904h107l-82 -147h-87zM497 904h107l-81 -147h-87zM413 692c196 0 354 -156 354 -352s-158 -352 -354 -352s-354 156 -354 352s158 352 354 352zM413 89c139 0 245 112 245 251s-106 252 -245 252s-245 -113 -245 -252s106 -251 245 -251z" />
    <glyph glyph-name="Omacron" unicode="&#x14c;" horiz-adv-x="825" 
d="M273 847h279v-85h-279v85zM413 692c196 0 354 -156 354 -352s-158 -352 -354 -352s-354 156 -354 352s158 352 354 352zM413 89c139 0 245 112 245 251s-106 252 -245 252s-245 -113 -245 -252s106 -251 245 -251z" />
    <glyph glyph-name="Oslash" unicode="&#xd8;" horiz-adv-x="825" 
d="M670 583c60 -63 97 -148 97 -243c0 -196 -158 -352 -354 -352c-72 0 -139 21 -194 57l-56 -66l-65 54l56 66c-59 63 -95 148 -95 241c0 196 158 352 354 352c71 0 136 -20 191 -55l49 58l65 -55zM168 340c0 -60 20 -116 54 -159l316 377c-36 22 -79 34 -125 34
c-139 0 -245 -113 -245 -252zM413 89c139 0 245 112 245 251c0 62 -21 118 -56 162l-317 -377c37 -23 81 -36 128 -36z" />
    <glyph glyph-name="Otilde" unicode="&#xd5;" horiz-adv-x="825" 
d="M584 886c0 -116 -98 -142 -161 -104l-46 28c-35 23 -55 1 -55 -26h-84c0 115 101 139 161 103l46 -28c37 -23 55 -1 55 27h84zM413 692c196 0 354 -156 354 -352s-158 -352 -354 -352s-354 156 -354 352s158 352 354 352zM413 89c139 0 245 112 245 251
s-106 252 -245 252s-245 -113 -245 -252s106 -251 245 -251z" />
    <glyph glyph-name="OE" unicode="&#x152;" horiz-adv-x="1021" 
d="M969 581h-380v-195h340v-99h-340v-187h380v-100h-534c-218 0 -376 144 -376 340s158 340 376 340h534v-99zM435 101h46v478l-46 1c-161 0 -267 -101 -267 -240s106 -239 267 -239z" />
    <glyph glyph-name="P" unicode="P" horiz-adv-x="629" 
d="M332 680c161 0 267 -93 267 -232c0 -146 -112 -243 -282 -243h-128v-205h-108v680h251zM329 304c98 0 164 58 164 144c0 79 -66 133 -164 133h-140v-277h140z" />
    <glyph glyph-name="Thorn" unicode="&#xde;" horiz-adv-x="629" 
d="M332 580c161 0 267 -93 267 -233c0 -146 -112 -242 -282 -242h-128v-105h-108v680h108v-100h143zM329 203c98 0 165 58 165 144c0 80 -67 134 -165 134h-140v-278h140z" />
    <glyph glyph-name="Q" unicode="Q" horiz-adv-x="825" 
d="M767 340c0 -115 -54 -216 -138 -280l118 -142l-80 -74l-136 164c-37 -13 -77 -20 -118 -20c-196 0 -354 156 -354 352s158 352 354 352s354 -156 354 -352zM168 340c0 -139 106 -251 245 -251s245 112 245 251s-106 252 -245 252s-245 -113 -245 -252z" />
    <glyph glyph-name="R" unicode="R" horiz-adv-x="682" 
d="M522 0l-176 230h-157v-230h-108v680h273c152 0 262 -88 262 -225c0 -101 -60 -176 -152 -208l190 -247h-132zM189 581v-252h161c91 0 160 48 160 126s-69 126 -160 126h-161z" />
    <glyph glyph-name="Racute" unicode="&#x154;" horiz-adv-x="682" 
d="M450 904l-97 -147h-95l77 147h115zM522 0l-176 230h-157v-230h-108v680h273c152 0 262 -88 262 -225c0 -101 -60 -176 -152 -208l190 -247h-132zM189 581v-252h161c91 0 160 48 160 126s-69 126 -160 126h-161z" />
    <glyph glyph-name="Rcaron" unicode="&#x158;" horiz-adv-x="682" 
d="M358 750h-100l-120 151h98l73 -85l72 85h98zM522 0l-176 230h-157v-230h-108v680h273c152 0 262 -88 262 -225c0 -101 -60 -176 -152 -208l190 -247h-132zM189 581v-252h161c91 0 160 48 160 126s-69 126 -160 126h-161z" />
    <glyph glyph-name="Rcommaaccent" unicode="&#x156;" horiz-adv-x="682" 
d="M464 247l190 -247h-132l-176 230h-157v-230h-108v680h273c152 0 262 -88 262 -225c0 -101 -60 -176 -152 -208zM189 581v-252h161c91 0 160 48 160 126s-69 126 -160 126h-161zM336 -54c34 0 62 -25 62 -59c0 -24 -5 -31 -62 -132h-59l37 81c-26 9 -39 29 -39 52
c0 32 28 58 61 58z" />
    <glyph glyph-name="S" unicode="S" horiz-adv-x="666" 
d="M333 692c125 0 257 -52 273 -209h-106c-12 72 -61 116 -160 116c-87 0 -144 -37 -144 -103c0 -54 40 -82 113 -96l95 -19c127 -25 200 -79 200 -184c0 -127 -104 -209 -260 -209c-166 0 -277 87 -290 233h107c13 -86 81 -137 189 -137c89 0 144 37 144 100
c0 41 -27 78 -107 92l-119 23c-127 24 -186 89 -186 189c0 124 100 204 251 204z" />
    <glyph glyph-name="Sacute" unicode="&#x15a;" horiz-adv-x="666" 
d="M359 904h115l-97 -147h-95zM333 692c125 0 257 -52 273 -209h-106c-12 72 -61 116 -160 116c-87 0 -144 -37 -144 -103c0 -54 40 -82 113 -96l95 -19c127 -25 200 -79 200 -184c0 -127 -104 -209 -260 -209c-166 0 -277 87 -290 233h107c13 -86 81 -137 189 -137
c89 0 144 37 144 100c0 41 -27 78 -107 92l-119 23c-127 24 -186 89 -186 189c0 124 100 204 251 204z" />
    <glyph glyph-name="Scaron" unicode="&#x160;" horiz-adv-x="666" 
d="M405 901h98l-121 -151h-100l-120 151h98l73 -85zM333 692c125 0 257 -52 273 -209h-106c-12 72 -61 116 -160 116c-87 0 -144 -37 -144 -103c0 -54 40 -82 113 -96l95 -19c127 -25 200 -79 200 -184c0 -127 -104 -209 -260 -209c-166 0 -277 87 -290 233h107
c13 -86 81 -137 189 -137c89 0 144 37 144 100c0 41 -27 78 -107 92l-119 23c-127 24 -186 89 -186 189c0 124 100 204 251 204z" />
    <glyph glyph-name="Scedilla" unicode="&#x15e;" horiz-adv-x="666" 
d="M333 692c125 0 257 -52 273 -209h-106c-12 72 -61 116 -160 116c-87 0 -144 -37 -144 -103c0 -54 40 -82 113 -96l95 -19c127 -25 200 -79 200 -184c0 -127 -104 -209 -260 -209c-166 0 -277 87 -290 233h107c13 -86 81 -137 189 -137c89 0 144 37 144 100
c0 41 -27 78 -107 92l-119 23c-127 24 -186 89 -186 189c0 124 100 204 251 204zM402 -59l-57 -153h-90l44 153h103z" />
    <glyph glyph-name="Scommaaccent" unicode="&#x218;" horiz-adv-x="666" 
d="M333 692c125 0 257 -52 273 -209h-106c-12 72 -61 116 -160 116c-87 0 -144 -37 -144 -103c0 -54 40 -82 113 -96l95 -19c127 -25 200 -79 200 -184c0 -127 -104 -209 -260 -209c-166 0 -277 87 -290 233h107c13 -86 81 -137 189 -137c89 0 144 37 144 100
c0 41 -27 78 -107 92l-119 23c-127 24 -186 89 -186 189c0 124 100 204 251 204zM288 -245l37 81c-26 9 -39 29 -39 52c0 32 28 58 61 58c34 0 62 -25 62 -59c0 -24 -5 -31 -62 -132h-59z" />
    <glyph glyph-name="uni1E9E" unicode="&#x1e9e;" horiz-adv-x="729" 
d="M492 403c114 -12 194 -88 194 -201c0 -126 -101 -216 -256 -216c-35 0 -86 4 -131 15v96c47 -15 87 -19 119 -19c96 0 159 48 159 121c0 68 -61 115 -153 115h-72v51l165 216h-181c-87 0 -144 -56 -144 -139v-442h-107v439c0 145 101 241 251 241h324v-65z" />
    <glyph glyph-name="T" unicode="T" horiz-adv-x="645" 
d="M617 680v-99h-241v-581h-107v581h-241v99h589z" />
    <glyph glyph-name="Tcaron" unicode="&#x164;" horiz-adv-x="645" 
d="M371 750h-100l-120 151h98l73 -85l72 85h98zM617 680v-99h-241v-581h-107v581h-241v99h589z" />
    <glyph glyph-name="uni0162" unicode="&#x162;" horiz-adv-x="645" 
d="M617 680v-99h-241v-581h-107v581h-241v99h589zM229 -212l44 153h103l-57 -153h-90z" />
    <glyph glyph-name="uni021A" unicode="&#x21a;" horiz-adv-x="645" 
d="M617 680v-99h-241v-581h-107v581h-241v99h589zM304 -54c34 0 62 -25 62 -59c0 -24 -5 -31 -62 -132h-59l37 81c-26 9 -39 29 -39 52c0 32 28 58 61 58z" />
    <glyph glyph-name="U" unicode="U" horiz-adv-x="738" 
d="M667 680v-381c0 -191 -119 -311 -298 -311c-178 0 -298 120 -298 311v381h108v-381c0 -125 76 -211 190 -211s191 86 191 211v381h107z" />
    <glyph glyph-name="Uacute" unicode="&#xda;" horiz-adv-x="738" 
d="M396 904h115l-97 -147h-95zM667 680v-381c0 -191 -119 -311 -298 -311c-178 0 -298 120 -298 311v381h108v-381c0 -125 76 -211 190 -211s191 86 191 211v381h107z" />
    <glyph glyph-name="Ucircumflex" unicode="&#xdb;" horiz-adv-x="738" 
d="M442 757l-72 85l-73 -85h-98l120 151h100l121 -151h-98zM667 680v-381c0 -191 -119 -311 -298 -311c-178 0 -298 120 -298 311v381h108v-381c0 -125 76 -211 190 -211s191 86 191 211v381h107z" />
    <glyph glyph-name="Udieresis" unicode="&#xdc;" horiz-adv-x="738" 
d="M268 888c37 0 67 -28 67 -65c0 -36 -30 -65 -67 -65s-67 29 -67 65c0 37 30 65 67 65zM471 888c37 0 67 -28 67 -65c0 -36 -30 -65 -67 -65s-67 29 -67 65c0 37 30 65 67 65zM667 680v-381c0 -191 -119 -311 -298 -311c-178 0 -298 120 -298 311v381h108v-381
c0 -125 76 -211 190 -211s191 86 191 211v381h107z" />
    <glyph glyph-name="Ugrave" unicode="&#xd9;" horiz-adv-x="738" 
d="M352 904l77 -147h-95l-97 147h115zM667 680v-381c0 -191 -119 -311 -298 -311c-178 0 -298 120 -298 311v381h108v-381c0 -125 76 -211 190 -211s191 86 191 211v381h107z" />
    <glyph glyph-name="Uhungarumlaut" unicode="&#x170;" horiz-adv-x="738" 
d="M311 904h107l-82 -147h-87zM454 904h107l-81 -147h-87zM667 680v-381c0 -191 -119 -311 -298 -311c-178 0 -298 120 -298 311v381h108v-381c0 -125 76 -211 190 -211s191 86 191 211v381h107z" />
    <glyph glyph-name="Umacron" unicode="&#x16a;" horiz-adv-x="738" 
d="M230 847h279v-85h-279v85zM667 680v-381c0 -191 -119 -311 -298 -311c-178 0 -298 120 -298 311v381h108v-381c0 -125 76 -211 190 -211s191 86 191 211v381h107z" />
    <glyph glyph-name="Uogonek" unicode="&#x172;" horiz-adv-x="738" 
d="M560 680h107v-381c0 -134 -59 -234 -156 -281c-64 -43 -82 -73 -82 -100c0 -25 19 -46 62 -46c14 0 25 2 39 5l11 -87c-12 -3 -39 -7 -63 -7c-83 0 -136 44 -136 111c0 31 16 63 48 95c-7 -1 -14 -1 -21 -1c-178 0 -298 120 -298 311v381h108v-381
c0 -125 76 -211 190 -211s191 86 191 211v381z" />
    <glyph glyph-name="Uring" unicode="&#x16e;" horiz-adv-x="738" 
d="M370 971c65 0 109 -41 109 -102s-44 -103 -109 -103s-109 42 -109 103s44 102 109 102zM370 820c29 0 49 20 49 49c0 28 -20 48 -49 48s-49 -20 -49 -48c0 -29 20 -49 49 -49zM667 680v-381c0 -191 -119 -311 -298 -311c-178 0 -298 120 -298 311v381h108v-381
c0 -125 76 -211 190 -211s191 86 191 211v381h107z" />
    <glyph glyph-name="V" unicode="V" horiz-adv-x="764" 
d="M624 680h117l-309 -684h-99l-310 684h118l241 -538z" />
    <glyph glyph-name="W" unicode="W" horiz-adv-x="1049" 
d="M913 680h114l-228 -684h-106l-168 490l-169 -490h-106l-227 684h113l168 -516l175 516h92l175 -516z" />
    <glyph glyph-name="Wacute" unicode="&#x1e82;" horiz-adv-x="1049" 
d="M666 904l-97 -147h-95l77 147h115zM913 680h114l-228 -684h-106l-168 490l-169 -490h-106l-227 684h113l168 -516l175 516h92l175 -516z" />
    <glyph glyph-name="Wcircumflex" unicode="&#x174;" horiz-adv-x="1049" 
d="M525 842l-73 -85h-98l120 151h100l121 -151h-98zM913 680h114l-228 -684h-106l-168 490l-169 -490h-106l-227 684h113l168 -516l175 516h92l175 -516z" />
    <glyph glyph-name="Wdieresis" unicode="&#x1e84;" horiz-adv-x="1049" 
d="M423 758c-37 0 -67 29 -67 65c0 37 30 65 67 65s67 -28 67 -65c0 -36 -30 -65 -67 -65zM626 758c-37 0 -67 29 -67 65c0 37 30 65 67 65s67 -28 67 -65c0 -36 -30 -65 -67 -65zM913 680h114l-228 -684h-106l-168 490l-169 -490h-106l-227 684h113l168 -516l175 516h92
l175 -516z" />
    <glyph glyph-name="Wgrave" unicode="&#x1e80;" horiz-adv-x="1049" 
d="M584 757h-95l-97 147h115zM913 680h114l-228 -684h-106l-168 490l-169 -490h-106l-227 684h113l168 -516l175 516h92l175 -516z" />
    <glyph glyph-name="X" unicode="X" horiz-adv-x="669" 
d="M651 0h-125l-191 256l-192 -256h-125l244 337l-238 343h131l179 -257l179 257h131l-238 -343z" />
    <glyph glyph-name="Y" unicode="Y" horiz-adv-x="683" 
d="M552 680h119l-275 -448v-232h-109v232l-275 448h119l210 -344z" />
    <glyph glyph-name="Yacute" unicode="&#xdd;" horiz-adv-x="683" 
d="M483 904l-97 -147h-95l77 147h115zM552 680h119l-275 -448v-232h-109v232l-275 448h119l210 -344z" />
    <glyph glyph-name="Ycircumflex" unicode="&#x176;" horiz-adv-x="683" 
d="M342 842l-73 -85h-98l120 151h100l121 -151h-98zM552 680h119l-275 -448v-232h-109v232l-275 448h119l210 -344z" />
    <glyph glyph-name="Ydieresis" unicode="&#x178;" horiz-adv-x="683" 
d="M240 758c-37 0 -67 29 -67 65c0 37 30 65 67 65s67 -28 67 -65c0 -36 -30 -65 -67 -65zM443 758c-37 0 -67 29 -67 65c0 37 30 65 67 65s67 -28 67 -65c0 -36 -30 -65 -67 -65zM552 680h119l-275 -448v-232h-109v232l-275 448h119l210 -344z" />
    <glyph glyph-name="Ygrave" unicode="&#x1ef2;" horiz-adv-x="683" 
d="M401 757h-95l-97 147h115zM552 680h119l-275 -448v-232h-109v232l-275 448h119l210 -344z" />
    <glyph glyph-name="Z" unicode="Z" horiz-adv-x="654" 
d="M219 98h382v-98h-551v52l391 530h-378v98h535v-52z" />
    <glyph glyph-name="Zacute" unicode="&#x179;" horiz-adv-x="654" 
d="M468 904l-97 -147h-95l77 147h115zM219 98h382v-98h-551v52l391 530h-378v98h535v-52z" />
    <glyph glyph-name="Zcaron" unicode="&#x17d;" horiz-adv-x="654" 
d="M376 750h-100l-120 151h98l73 -85l72 85h98zM219 98h382v-98h-551v52l391 530h-378v98h535v-52z" />
    <glyph glyph-name="Zdotaccent" unicode="&#x17b;" horiz-adv-x="654" 
d="M327 758c-37 0 -67 29 -67 65c0 37 30 65 67 65s67 -28 67 -65c0 -36 -30 -65 -67 -65zM219 98h382v-98h-551v52l391 530h-378v98h535v-52z" />
    <glyph glyph-name="R.ss02" horiz-adv-x="683" 
d="M504 0l-280 230h-35v-230h-108v680h269c160 0 266 -88 266 -225c0 -129 -94 -215 -239 -224l279 -231h-152zM189 581v-252h157c98 0 164 48 164 126s-66 126 -164 126h-157z" />
    <glyph glyph-name="Racute.ss02" horiz-adv-x="683" 
d="M466 904l-97 -147h-95l77 147h115zM504 0l-280 230h-35v-230h-108v680h269c160 0 266 -88 266 -225c0 -129 -94 -215 -239 -224l279 -231h-152zM189 581v-252h157c98 0 164 48 164 126s-66 126 -164 126h-157z" />
    <glyph glyph-name="Rcaron.ss02" horiz-adv-x="683" 
d="M374 750h-100l-120 151h98l73 -85l72 85h98zM504 0l-280 230h-35v-230h-108v680h269c160 0 266 -88 266 -225c0 -129 -94 -215 -239 -224l279 -231h-152zM189 581v-252h157c98 0 164 48 164 126s-66 126 -164 126h-157z" />
    <glyph glyph-name="Rcommaaccent.ss02" horiz-adv-x="683" 
d="M377 231l279 -231h-152l-280 230h-35v-230h-108v680h269c160 0 266 -88 266 -225c0 -129 -94 -215 -239 -224zM189 581v-252h157c98 0 164 48 164 126s-66 126 -164 126h-157zM332 -54c34 0 62 -25 62 -59c0 -24 -5 -31 -62 -132h-59l37 81c-26 9 -39 29 -39 52
c0 32 28 58 61 58z" />
    <glyph glyph-name="Q.ss03" horiz-adv-x="825" 
d="M413 692c196 0 354 -156 354 -352s-158 -352 -354 -352s-354 156 -354 352s158 352 354 352zM413 89c139 0 245 112 245 251s-106 252 -245 252s-245 -113 -245 -252s106 -251 245 -251zM388 -65l330 -52l-21 -103c-110 24 -219 49 -327 76z" />
    <glyph glyph-name="a" unicode="a" horiz-adv-x="613" 
d="M438 470h103v-470h-103v37c-40 -31 -91 -49 -151 -49c-132 0 -238 110 -238 247s106 247 238 247c60 0 111 -18 151 -49v37zM302 82c52 0 101 18 136 68v170c-35 50 -84 68 -136 68c-86 0 -149 -69 -149 -153s63 -153 149 -153z" />
    <glyph glyph-name="aacute" unicode="&#xe1;" horiz-adv-x="613" 
d="M456 700l-97 -147h-95l77 147h115zM438 470h103v-470h-103v37c-40 -31 -91 -49 -151 -49c-132 0 -238 110 -238 247s106 247 238 247c60 0 111 -18 151 -49v37zM302 82c52 0 101 18 136 68v170c-35 50 -84 68 -136 68c-86 0 -149 -69 -149 -153s63 -153 149 -153z" />
    <glyph glyph-name="abreve" unicode="&#x103;" horiz-adv-x="613" 
d="M315 540c-85 0 -152 50 -152 150h77c0 -59 36 -80 75 -80c38 0 76 21 76 80h76c0 -100 -66 -150 -152 -150zM438 470h103v-470h-103v37c-40 -31 -91 -49 -151 -49c-132 0 -238 110 -238 247s106 247 238 247c60 0 111 -18 151 -49v37zM302 82c52 0 101 18 136 68v170
c-35 50 -84 68 -136 68c-86 0 -149 -69 -149 -153s63 -153 149 -153z" />
    <glyph glyph-name="uni01CE" unicode="&#x1ce;" horiz-adv-x="613" 
d="M364 544h-100l-120 151h98l73 -85l72 85h98zM438 470h103v-470h-103v37c-40 -31 -91 -49 -151 -49c-132 0 -238 110 -238 247s106 247 238 247c60 0 111 -18 151 -49v37zM302 82c52 0 101 18 136 68v170c-35 50 -84 68 -136 68c-86 0 -149 -69 -149 -153
s63 -153 149 -153z" />
    <glyph glyph-name="acircumflex" unicode="&#xe2;" horiz-adv-x="613" 
d="M315 629l-73 -85h-98l120 151h100l121 -151h-98zM438 470h103v-470h-103v37c-40 -31 -91 -49 -151 -49c-132 0 -238 110 -238 247s106 247 238 247c60 0 111 -18 151 -49v37zM302 82c52 0 101 18 136 68v170c-35 50 -84 68 -136 68c-86 0 -149 -69 -149 -153
s63 -153 149 -153z" />
    <glyph glyph-name="adieresis" unicode="&#xe4;" horiz-adv-x="613" 
d="M214 560c-37 0 -67 29 -67 65c0 37 30 65 67 65s67 -28 67 -65c0 -36 -30 -65 -67 -65zM417 560c-37 0 -67 29 -67 65c0 37 30 65 67 65s67 -28 67 -65c0 -36 -30 -65 -67 -65zM438 470h103v-470h-103v37c-40 -31 -91 -49 -151 -49c-132 0 -238 110 -238 247
s106 247 238 247c60 0 111 -18 151 -49v37zM302 82c52 0 101 18 136 68v170c-35 50 -84 68 -136 68c-86 0 -149 -69 -149 -153s63 -153 149 -153z" />
    <glyph glyph-name="agrave" unicode="&#xe0;" horiz-adv-x="613" 
d="M374 554h-95l-97 147h115zM438 470h103v-470h-103v37c-40 -31 -91 -49 -151 -49c-132 0 -238 110 -238 247s106 247 238 247c60 0 111 -18 151 -49v37zM302 82c52 0 101 18 136 68v170c-35 50 -84 68 -136 68c-86 0 -149 -69 -149 -153s63 -153 149 -153z" />
    <glyph glyph-name="amacron" unicode="&#x101;" horiz-adv-x="613" 
d="M454 658v-85h-279v85h279zM438 470h103v-470h-103v37c-40 -31 -91 -49 -151 -49c-132 0 -238 110 -238 247s106 247 238 247c60 0 111 -18 151 -49v37zM302 82c52 0 101 18 136 68v170c-35 50 -84 68 -136 68c-86 0 -149 -69 -149 -153s63 -153 149 -153z" />
    <glyph glyph-name="aogonek" unicode="&#x105;" horiz-adv-x="613" 
d="M572 -92l10 -77c-12 -5 -39 -10 -63 -10c-83 0 -139 44 -139 111c0 35 21 66 58 87v18c-40 -31 -91 -49 -151 -49c-132 0 -238 110 -238 247s106 247 238 247c60 0 111 -18 151 -49v37h103v-470h-1c-48 -10 -73 -27 -73 -57c0 -25 22 -40 65 -40c14 0 25 2 40 5zM302 82
c52 0 101 18 136 68v170c-35 50 -84 68 -136 68c-86 0 -149 -69 -149 -153s63 -153 149 -153z" />
    <glyph glyph-name="aring" unicode="&#xe5;" horiz-adv-x="613" 
d="M315 543c-65 0 -109 42 -109 103s44 102 109 102s109 -41 109 -102s-44 -103 -109 -103zM315 694c-29 0 -49 -20 -49 -48c0 -29 20 -49 49 -49s49 20 49 49c0 28 -20 48 -49 48zM438 470h103v-470h-103v37c-40 -31 -91 -49 -151 -49c-132 0 -238 110 -238 247
s106 247 238 247c60 0 111 -18 151 -49v37zM302 82c52 0 101 18 136 68v170c-35 50 -84 68 -136 68c-86 0 -149 -69 -149 -153s63 -153 149 -153z" />
    <glyph glyph-name="atilde" unicode="&#xe3;" horiz-adv-x="613" 
d="M285 607c-35 23 -55 1 -55 -26h-84c0 115 101 139 161 103l46 -28c37 -23 55 -1 55 27h84c0 -116 -98 -142 -161 -104zM438 470h103v-470h-103v37c-40 -31 -91 -49 -151 -49c-132 0 -238 110 -238 247s106 247 238 247c60 0 111 -18 151 -49v37zM302 82
c52 0 101 18 136 68v170c-35 50 -84 68 -136 68c-86 0 -149 -69 -149 -153s63 -153 149 -153z" />
    <glyph glyph-name="ae" unicode="&#xe6;" horiz-adv-x="905" 
d="M621 482c156 0 253 -119 233 -278h-369c10 -71 55 -125 143 -125c46 0 81 14 100 44h114c-30 -85 -113 -135 -215 -135c-79 0 -145 31 -189 81c-49 -45 -118 -79 -202 -79c-118 0 -196 57 -196 151c0 86 69 131 185 131h155c0 67 -24 124 -110 124
c-56 0 -97 -28 -104 -73h-104c8 111 108 159 208 159c76 0 136 -27 173 -75c42 46 104 75 178 75zM622 394c-78 0 -123 -52 -135 -118h264c-6 77 -56 118 -129 118zM241 76c56 0 102 15 157 59c-8 19 -13 39 -16 60h-163c-54 0 -80 -22 -80 -52c0 -37 32 -67 102 -67z" />
    <glyph glyph-name="b" unicode="b" horiz-adv-x="613" 
d="M326 482c132 0 239 -110 239 -246c0 -138 -107 -248 -239 -248c-60 0 -111 18 -150 49v-37h-104v710h104v-276c39 30 90 48 150 48zM311 82c87 0 150 70 150 154c0 83 -63 152 -150 152c-52 0 -100 -17 -135 -66v-173c35 -49 83 -67 135 -67z" />
    <glyph glyph-name="c" unicode="c" horiz-adv-x="575" 
d="M297 82c63 0 110 36 123 89h106c-17 -108 -111 -183 -229 -183c-141 0 -248 107 -248 247c0 139 107 247 248 247c118 0 212 -75 229 -183h-106c-13 53 -60 89 -123 89c-87 0 -144 -68 -144 -153s57 -153 144 -153z" />
    <glyph glyph-name="cacute" unicode="&#x107;" horiz-adv-x="575" 
d="M432 700l-97 -147h-95l77 147h115zM297 82c63 0 110 36 123 89h106c-17 -108 -111 -183 -229 -183c-141 0 -248 107 -248 247c0 139 107 247 248 247c118 0 212 -75 229 -183h-106c-13 53 -60 89 -123 89c-87 0 -144 -68 -144 -153s57 -153 144 -153z" />
    <glyph glyph-name="ccaron" unicode="&#x10d;" horiz-adv-x="575" 
d="M340 544h-100l-120 151h98l73 -85l72 85h98zM297 82c63 0 110 36 123 89h106c-17 -108 -111 -183 -229 -183c-141 0 -248 107 -248 247c0 139 107 247 248 247c118 0 212 -75 229 -183h-106c-13 53 -60 89 -123 89c-87 0 -144 -68 -144 -153s57 -153 144 -153z" />
    <glyph glyph-name="ccedilla" unicode="&#xe7;" horiz-adv-x="575" 
d="M297 82c63 0 110 36 123 89h106c-17 -108 -111 -183 -229 -183c-141 0 -248 107 -248 247c0 139 107 247 248 247c118 0 212 -75 229 -183h-106c-13 53 -60 89 -123 89c-87 0 -144 -68 -144 -153s57 -153 144 -153zM199 -212l44 153h103l-57 -153h-90z" />
    <glyph glyph-name="cdotaccent" unicode="&#x10b;" horiz-adv-x="575" 
d="M291 560c-37 0 -67 29 -67 65c0 37 30 65 67 65s67 -28 67 -65c0 -36 -30 -65 -67 -65zM297 82c63 0 110 36 123 89h106c-17 -108 -111 -183 -229 -183c-141 0 -248 107 -248 247c0 139 107 247 248 247c118 0 212 -75 229 -183h-106c-13 53 -60 89 -123 89
c-87 0 -144 -68 -144 -153s57 -153 144 -153z" />
    <glyph glyph-name="d" unicode="d" horiz-adv-x="613" 
d="M438 710h103v-710h-103v38c-40 -32 -91 -50 -151 -50c-132 0 -238 110 -238 248c0 136 106 246 238 246c60 0 111 -18 151 -49v277zM302 82c52 0 101 18 136 69v169c-35 50 -84 68 -136 68c-86 0 -149 -69 -149 -152c0 -84 63 -154 149 -154z" />
    <glyph glyph-name="eth" unicode="&#xf0;" horiz-adv-x="598" 
d="M395 599c96 -93 154 -220 154 -364c0 -143 -108 -249 -250 -249s-250 106 -250 249c0 142 108 246 250 246c32 0 63 -8 91 -22c-24 39 -54 74 -92 104l-152 -55l-27 69l104 38c-32 19 -69 37 -108 53l106 44c39 -16 75 -35 108 -59l95 35l26 -69zM299 80
c86 0 146 68 146 155c0 85 -60 152 -146 152s-146 -67 -146 -152c0 -87 60 -155 146 -155z" />
    <glyph glyph-name="dcaron" unicode="&#x10f;" horiz-adv-x="613" 
d="M438 433v277h103v-710h-103v38c-40 -32 -91 -50 -151 -50c-132 0 -238 110 -238 248c0 136 106 246 238 246c60 0 111 -18 151 -49zM620 710h105l-33 -195h-79zM302 82c52 0 101 18 136 69v169c-35 50 -84 68 -136 68c-86 0 -149 -69 -149 -152c0 -84 63 -154 149 -154z
" />
    <glyph glyph-name="dcroat" unicode="&#x111;" horiz-adv-x="613" 
d="M576 643v-86h-35v-557h-103v38c-40 -32 -91 -50 -151 -50c-132 0 -238 110 -238 248c0 136 106 246 238 246c60 0 111 -18 151 -49v124h-174v86h174v67h103v-67h35zM302 82c52 0 101 18 136 69v169c-35 50 -84 68 -136 68c-86 0 -149 -69 -149 -152
c0 -84 63 -154 149 -154z" />
    <glyph glyph-name="e" unicode="e" horiz-adv-x="575" 
d="M291 482c156 0 253 -119 233 -278h-369c10 -71 55 -125 143 -125c46 0 81 14 100 44h114c-30 -85 -113 -135 -215 -135c-148 0 -248 107 -248 247c0 139 99 247 242 247zM292 394c-78 0 -123 -52 -135 -118h264c-6 77 -56 118 -129 118z" />
    <glyph glyph-name="eacute" unicode="&#xe9;" horiz-adv-x="575" 
d="M435 700l-97 -147h-95l77 147h115zM291 482c156 0 253 -119 233 -278h-369c10 -71 55 -125 143 -125c46 0 81 14 100 44h114c-30 -85 -113 -135 -215 -135c-148 0 -248 107 -248 247c0 139 99 247 242 247zM292 394c-78 0 -123 -52 -135 -118h264c-6 77 -56 118 -129 118
z" />
    <glyph glyph-name="ecaron" unicode="&#x11b;" horiz-adv-x="575" 
d="M343 544h-100l-120 151h98l73 -85l72 85h98zM291 482c156 0 253 -119 233 -278h-369c10 -71 55 -125 143 -125c46 0 81 14 100 44h114c-30 -85 -113 -135 -215 -135c-148 0 -248 107 -248 247c0 139 99 247 242 247zM292 394c-78 0 -123 -52 -135 -118h264
c-6 77 -56 118 -129 118z" />
    <glyph glyph-name="ecircumflex" unicode="&#xea;" horiz-adv-x="575" 
d="M294 629l-73 -85h-98l120 151h100l121 -151h-98zM291 482c156 0 253 -119 233 -278h-369c10 -71 55 -125 143 -125c46 0 81 14 100 44h114c-30 -85 -113 -135 -215 -135c-148 0 -248 107 -248 247c0 139 99 247 242 247zM292 394c-78 0 -123 -52 -135 -118h264
c-6 77 -56 118 -129 118z" />
    <glyph glyph-name="edieresis" unicode="&#xeb;" horiz-adv-x="575" 
d="M193 560c-37 0 -67 29 -67 65c0 37 30 65 67 65s67 -28 67 -65c0 -36 -30 -65 -67 -65zM396 560c-37 0 -67 29 -67 65c0 37 30 65 67 65s67 -28 67 -65c0 -36 -30 -65 -67 -65zM291 482c156 0 253 -119 233 -278h-369c10 -71 55 -125 143 -125c46 0 81 14 100 44h114
c-30 -85 -113 -135 -215 -135c-148 0 -248 107 -248 247c0 139 99 247 242 247zM292 394c-78 0 -123 -52 -135 -118h264c-6 77 -56 118 -129 118z" />
    <glyph glyph-name="edotaccent" unicode="&#x117;" horiz-adv-x="575" 
d="M294 560c-37 0 -67 29 -67 65c0 37 30 65 67 65s67 -28 67 -65c0 -36 -30 -65 -67 -65zM291 482c156 0 253 -119 233 -278h-369c10 -71 55 -125 143 -125c46 0 81 14 100 44h114c-30 -85 -113 -135 -215 -135c-148 0 -248 107 -248 247c0 139 99 247 242 247zM292 394
c-78 0 -123 -52 -135 -118h264c-6 77 -56 118 -129 118z" />
    <glyph glyph-name="egrave" unicode="&#xe8;" horiz-adv-x="575" 
d="M353 554h-95l-97 147h115zM291 482c156 0 253 -119 233 -278h-369c10 -71 55 -125 143 -125c46 0 81 14 100 44h114c-30 -85 -113 -135 -215 -135c-148 0 -248 107 -248 247c0 139 99 247 242 247zM292 394c-78 0 -123 -52 -135 -118h264c-6 77 -56 118 -129 118z" />
    <glyph glyph-name="emacron" unicode="&#x113;" horiz-adv-x="575" 
d="M433 658v-85h-279v85h279zM291 482c156 0 253 -119 233 -278h-369c10 -71 55 -125 143 -125c46 0 81 14 100 44h114c-30 -85 -113 -135 -215 -135c-148 0 -248 107 -248 247c0 139 99 247 242 247zM292 394c-78 0 -123 -52 -135 -118h264c-6 77 -56 118 -129 118z" />
    <glyph glyph-name="eogonek" unicode="&#x119;" horiz-adv-x="575" 
d="M291 482c156 0 253 -119 233 -278h-369c10 -71 55 -125 143 -125c46 0 81 14 100 44h114c-14 -38 -38 -69 -70 -92c-36 -32 -44 -52 -44 -79c0 -30 22 -47 65 -47c14 0 25 2 39 5l11 -77c-12 -5 -39 -10 -63 -10c-83 0 -139 44 -139 111c0 19 5 38 15 55
c-10 -1 -19 -1 -29 -1c-148 0 -248 107 -248 247c0 139 99 247 242 247zM292 394c-78 0 -123 -52 -135 -118h264c-6 77 -56 118 -129 118z" />
    <glyph glyph-name="f" unicode="f" horiz-adv-x="429" 
d="M241 533v-63h186v-87h-186v-383h-103v383h-133v87h133v63c0 117 81 189 192 189c31 0 62 -5 99 -15l-15 -88c-25 8 -53 13 -72 13c-61 0 -101 -38 -101 -99z" />
    <glyph glyph-name="g" unicode="g" horiz-adv-x="613" 
d="M438 470h103v-483c0 -143 -97 -229 -238 -229c-132 0 -229 78 -242 190h106c9 -57 59 -96 136 -96c79 0 135 49 135 135v74c-40 -31 -93 -49 -153 -49c-132 0 -236 106 -236 232c0 140 104 238 236 238c60 0 113 -18 153 -49v37zM300 102c52 0 103 20 138 72v146
c-35 52 -86 73 -138 73c-87 0 -147 -62 -147 -149c0 -72 60 -142 147 -142z" />
    <glyph glyph-name="gbreve" unicode="&#x11f;" horiz-adv-x="613" 
d="M314 540c-85 0 -152 50 -152 150h77c0 -59 36 -80 75 -80c38 0 76 21 76 80h76c0 -100 -66 -150 -152 -150zM438 470h103v-483c0 -143 -97 -229 -238 -229c-132 0 -229 78 -242 190h106c9 -57 59 -96 136 -96c79 0 135 49 135 135v74c-40 -31 -93 -49 -153 -49
c-132 0 -236 106 -236 232c0 140 104 238 236 238c60 0 113 -18 153 -49v37zM300 102c52 0 103 20 138 72v146c-35 52 -86 73 -138 73c-87 0 -147 -62 -147 -149c0 -72 60 -142 147 -142z" />
    <glyph glyph-name="gcommaaccent" unicode="&#x123;" horiz-adv-x="617" 
d="M309 559c-34 0 -62 25 -62 59c0 24 5 31 62 132h59l-37 -81c26 -9 39 -29 39 -52c0 -32 -28 -58 -61 -58zM438 470h103v-483c0 -143 -97 -229 -238 -229c-132 0 -229 78 -242 190h106c9 -57 59 -96 136 -96c79 0 135 49 135 135v74c-40 -31 -93 -49 -153 -49
c-132 0 -236 106 -236 232c0 140 104 238 236 238c60 0 113 -18 153 -49v37zM300 102c52 0 103 20 138 72v146c-35 52 -86 73 -138 73c-87 0 -147 -62 -147 -149c0 -72 60 -142 147 -142z" />
    <glyph glyph-name="gdotaccent" unicode="&#x121;" horiz-adv-x="613" 
d="M314 560c-37 0 -67 29 -67 65c0 37 30 65 67 65s67 -28 67 -65c0 -36 -30 -65 -67 -65zM438 470h103v-483c0 -143 -97 -229 -238 -229c-132 0 -229 78 -242 190h106c9 -57 59 -96 136 -96c79 0 135 49 135 135v74c-40 -31 -93 -49 -153 -49c-132 0 -236 106 -236 232
c0 140 104 238 236 238c60 0 113 -18 153 -49v37zM300 102c52 0 103 20 138 72v146c-35 52 -86 73 -138 73c-87 0 -147 -62 -147 -149c0 -72 60 -142 147 -142z" />
    <glyph glyph-name="h" unicode="h" horiz-adv-x="592" 
d="M328 482c122 0 205 -84 205 -220v-262h-104v256c0 86 -46 132 -122 132c-45 0 -94 -25 -131 -71v-317h-104v710h104v-282c41 35 92 54 152 54z" />
    <glyph glyph-name="hbar" unicode="&#x127;" horiz-adv-x="590" 
d="M328 482c122 0 205 -84 205 -220v-262h-104v256c0 86 -46 132 -122 132c-45 0 -94 -25 -131 -71v-317h-104v581h-43v74h43v55h104v-55h151v-74h-151v-153c41 35 92 54 152 54z" />
    <glyph glyph-name="i" unicode="i" horiz-adv-x="276" 
d="M138 579c-37 0 -66 27 -66 64s29 64 66 64c36 0 66 -27 66 -64s-30 -64 -66 -64zM87 470h103v-470h-103v470z" />
    <glyph glyph-name="dotlessi" unicode="&#x131;" horiz-adv-x="266" 
d="M82 470h103v-470h-103v470z" />
    <glyph glyph-name="iacute" unicode="&#xed;" horiz-adv-x="266" 
d="M159 700h115l-97 -147h-95zM82 470h103v-470h-103v470z" />
    <glyph glyph-name="icircumflex" unicode="&#xee;" horiz-adv-x="266" 
d="M205 544l-72 85l-73 -85h-98l120 151h100l121 -151h-98zM82 470h103v-470h-103v470z" />
    <glyph glyph-name="idieresis" unicode="&#xef;" horiz-adv-x="266" 
d="M32 690c37 0 67 -28 67 -65c0 -36 -30 -65 -67 -65s-67 29 -67 65c0 37 30 65 67 65zM235 690c37 0 67 -28 67 -65c0 -36 -30 -65 -67 -65s-67 29 -67 65c0 37 30 65 67 65zM82 470h103v-470h-103v470z" />
    <glyph glyph-name="i.loclTRK" horiz-adv-x="276" 
d="M138 579c-37 0 -66 27 -66 64s29 64 66 64c36 0 66 -27 66 -64s-30 -64 -66 -64zM87 470h103v-470h-103v470z" />
    <glyph glyph-name="igrave" unicode="&#xec;" horiz-adv-x="266" 
d="M115 701l77 -147h-95l-97 147h115zM82 470h103v-470h-103v470z" />
    <glyph glyph-name="ij" unicode="&#x133;" horiz-adv-x="540" 
d="M138 579c-37 0 -66 27 -66 64s29 64 66 64c36 0 66 -27 66 -64s-30 -64 -66 -64zM402 579c-36 0 -65 27 -65 64s29 64 65 64c37 0 66 -27 66 -64s-29 -64 -66 -64zM87 470h103v-470h-103v470zM455 470v-503c0 -137 -44 -207 -197 -209l-8 90c77 5 101 30 101 107v515h104
z" />
    <glyph glyph-name="imacron" unicode="&#x12b;" horiz-adv-x="266" 
d="M-7 658h279v-85h-279v85zM82 470h103v-470h-103v470z" />
    <glyph glyph-name="iogonek" unicode="&#x12f;" horiz-adv-x="266" 
d="M138 579c-37 0 -66 27 -66 64s29 64 66 64c36 0 66 -27 66 -64s-30 -64 -66 -64zM214 -92l10 -77c-12 -5 -39 -10 -63 -10c-83 0 -139 44 -139 111c0 37 24 70 65 91v447h103v-470h-8c-48 -10 -73 -27 -73 -57c0 -25 22 -40 65 -40c14 0 25 2 40 5z" />
    <glyph glyph-name="j" unicode="j" horiz-adv-x="264" 
d="M126 579c-36 0 -65 27 -65 64s29 64 65 64c37 0 66 -27 66 -64s-29 -64 -66 -64zM179 470v-503c0 -137 -44 -207 -197 -209l-8 90c77 5 101 30 101 107v515h104z" />
    <glyph glyph-name="k" unicode="k" horiz-adv-x="570" 
d="M424 0l-159 201l-89 -90v-111h-104v710h104v-462l221 222h132l-193 -196l223 -274h-135z" />
    <glyph glyph-name="kcommaaccent" unicode="&#x137;" horiz-adv-x="570" 
d="M336 274l223 -274h-135l-159 201l-89 -90v-111h-104v710h104v-462l221 222h132zM286 -54c34 0 62 -25 62 -59c0 -24 -5 -31 -62 -132h-59l37 81c-26 9 -39 29 -39 52c0 32 28 58 61 58z" />
    <glyph glyph-name="l" unicode="l" horiz-adv-x="248" 
d="M72 710h104v-710h-104v710z" />
    <glyph glyph-name="lacute" unicode="&#x13a;" horiz-adv-x="248" 
d="M155 940h115l-97 -147h-95zM72 710h104v-710h-104v710z" />
    <glyph glyph-name="lcaron" unicode="&#x13e;" horiz-adv-x="248" 
d="M72 710h104v-710h-104v710zM232 710h105l-33 -195h-79z" />
    <glyph glyph-name="lcommaaccent" unicode="&#x13c;" horiz-adv-x="248" 
d="M72 710h104v-710h-104v710zM62 -245l37 81c-26 9 -39 29 -39 52c0 32 28 58 61 58c34 0 62 -25 62 -59c0 -24 -5 -31 -62 -132h-59z" />
    <glyph glyph-name="ldot" unicode="&#x140;" horiz-adv-x="368" 
d="M72 710h104v-710h-104v710zM275 261c-37 0 -67 29 -67 65c0 37 30 65 67 65s67 -28 67 -65c0 -36 -30 -65 -67 -65z" />
    <glyph glyph-name="lslash" unicode="&#x142;" horiz-adv-x="248" 
d="M243 474v-106l-67 -30v-338h-104v292l-67 -30v106l67 30v312h104v-266z" />
    <glyph glyph-name="m" unicode="m" horiz-adv-x="906" 
d="M639 482c123 0 207 -74 207 -213v-269h-103v269c0 83 -44 119 -111 119c-46 0 -90 -17 -125 -64c3 -15 4 -32 4 -49v-275h-103v275c0 83 -44 113 -105 113c-49 0 -93 -20 -127 -67v-321h-104v470h104v-40c35 32 77 52 139 52c67 0 121 -23 156 -68c46 45 99 68 168 68z
" />
    <glyph glyph-name="n" unicode="n" horiz-adv-x="592" 
d="M328 482c122 0 205 -84 205 -220v-262h-104v256c0 86 -46 132 -122 132c-45 0 -94 -25 -131 -71v-317h-104v470h104v-42c41 35 92 54 152 54z" />
    <glyph glyph-name="nacute" unicode="&#x144;" horiz-adv-x="592" 
d="M441 700l-97 -147h-95l77 147h115zM328 482c122 0 205 -84 205 -220v-262h-104v256c0 86 -46 132 -122 132c-45 0 -94 -25 -131 -71v-317h-104v470h104v-42c41 35 92 54 152 54z" />
    <glyph glyph-name="ncaron" unicode="&#x148;" horiz-adv-x="592" 
d="M349 544h-100l-120 151h98l73 -85l72 85h98zM328 482c122 0 205 -84 205 -220v-262h-104v256c0 86 -46 132 -122 132c-45 0 -94 -25 -131 -71v-317h-104v470h104v-42c41 35 92 54 152 54z" />
    <glyph glyph-name="ncommaaccent" unicode="&#x146;" horiz-adv-x="592" 
d="M328 482c122 0 205 -84 205 -220v-262h-104v256c0 86 -46 132 -122 132c-45 0 -94 -25 -131 -71v-317h-104v470h104v-42c41 35 92 54 152 54zM301 -54c34 0 62 -25 62 -59c0 -24 -5 -31 -62 -132h-59l37 81c-26 9 -39 29 -39 52c0 32 28 58 61 58z" />
    <glyph glyph-name="ntilde" unicode="&#xf1;" horiz-adv-x="592" 
d="M270 607c-35 23 -55 1 -55 -26h-84c0 115 101 139 161 103l46 -28c37 -23 55 -1 55 27h84c0 -116 -98 -142 -161 -104zM328 482c122 0 205 -84 205 -220v-262h-104v256c0 86 -46 132 -122 132c-45 0 -94 -25 -131 -71v-317h-104v470h104v-42c41 35 92 54 152 54z" />
    <glyph glyph-name="o" unicode="o" horiz-adv-x="598" 
d="M299 482c146 0 250 -103 250 -247s-104 -247 -250 -247s-250 103 -250 247s104 247 250 247zM299 82c85 0 146 65 146 153c0 89 -61 153 -146 153s-146 -64 -146 -153c0 -88 61 -153 146 -153z" />
    <glyph glyph-name="oacute" unicode="&#xf3;" horiz-adv-x="598" 
d="M325 700h115l-97 -147h-95zM299 482c146 0 250 -103 250 -247s-104 -247 -250 -247s-250 103 -250 247s104 247 250 247zM299 82c85 0 146 65 146 153c0 89 -61 153 -146 153s-146 -64 -146 -153c0 -88 61 -153 146 -153z" />
    <glyph glyph-name="ocircumflex" unicode="&#xf4;" horiz-adv-x="598" 
d="M371 544l-72 85l-73 -85h-98l120 151h100l121 -151h-98zM299 482c146 0 250 -103 250 -247s-104 -247 -250 -247s-250 103 -250 247s104 247 250 247zM299 82c85 0 146 65 146 153c0 89 -61 153 -146 153s-146 -64 -146 -153c0 -88 61 -153 146 -153z" />
    <glyph glyph-name="odieresis" unicode="&#xf6;" horiz-adv-x="598" 
d="M198 690c37 0 67 -28 67 -65c0 -36 -30 -65 -67 -65s-67 29 -67 65c0 37 30 65 67 65zM401 690c37 0 67 -28 67 -65c0 -36 -30 -65 -67 -65s-67 29 -67 65c0 37 30 65 67 65zM299 482c146 0 250 -103 250 -247s-104 -247 -250 -247s-250 103 -250 247s104 247 250 247z
M299 82c85 0 146 65 146 153c0 89 -61 153 -146 153s-146 -64 -146 -153c0 -88 61 -153 146 -153z" />
    <glyph glyph-name="ograve" unicode="&#xf2;" horiz-adv-x="598" 
d="M281 701l77 -147h-95l-97 147h115zM299 482c146 0 250 -103 250 -247s-104 -247 -250 -247s-250 103 -250 247s104 247 250 247zM299 82c85 0 146 65 146 153c0 89 -61 153 -146 153s-146 -64 -146 -153c0 -88 61 -153 146 -153z" />
    <glyph glyph-name="ohungarumlaut" unicode="&#x151;" horiz-adv-x="598" 
d="M240 701h107l-82 -147h-87zM383 701h107l-81 -147h-87zM299 482c146 0 250 -103 250 -247s-104 -247 -250 -247s-250 103 -250 247s104 247 250 247zM299 82c85 0 146 65 146 153c0 89 -61 153 -146 153s-146 -64 -146 -153c0 -88 61 -153 146 -153z" />
    <glyph glyph-name="omacron" unicode="&#x14d;" horiz-adv-x="598" 
d="M159 658h279v-85h-279v85zM299 482c146 0 250 -103 250 -247s-104 -247 -250 -247s-250 103 -250 247s104 247 250 247zM299 82c85 0 146 65 146 153c0 89 -61 153 -146 153s-146 -64 -146 -153c0 -88 61 -153 146 -153z" />
    <glyph glyph-name="oslash" unicode="&#xf8;" horiz-adv-x="598" 
d="M485 406c40 -43 64 -102 64 -171c0 -144 -104 -247 -250 -247c-51 0 -97 13 -135 35l-29 -35l-55 45l29 35c-38 43 -60 101 -60 167c0 144 104 247 250 247c48 0 92 -11 129 -32l36 43l55 -46zM153 235c0 -33 8 -62 23 -86l188 225c-19 9 -41 14 -65 14
c-85 0 -146 -64 -146 -153zM299 82c85 0 146 65 146 153c0 35 -10 67 -27 92l-190 -228c21 -11 45 -17 71 -17z" />
    <glyph glyph-name="otilde" unicode="&#xf5;" horiz-adv-x="598" 
d="M476 683c0 -116 -98 -142 -161 -104l-46 28c-35 23 -55 1 -55 -26h-84c0 115 101 139 161 103l46 -28c37 -23 55 -1 55 27h84zM299 482c146 0 250 -103 250 -247s-104 -247 -250 -247s-250 103 -250 247s104 247 250 247zM299 82c85 0 146 65 146 153
c0 89 -61 153 -146 153s-146 -64 -146 -153c0 -88 61 -153 146 -153z" />
    <glyph glyph-name="oe" unicode="&#x153;" horiz-adv-x="975" 
d="M691 482c156 0 253 -119 233 -278h-369c10 -71 55 -125 143 -125c46 0 81 14 100 44h114c-30 -85 -113 -135 -215 -135c-85 0 -155 36 -198 92c-44 -57 -115 -92 -200 -92c-146 0 -250 103 -250 247s104 247 250 247c85 0 155 -35 200 -92c42 56 110 92 192 92zM692 394
c-78 0 -123 -52 -135 -118h264c-6 77 -56 118 -129 118zM299 82c85 0 146 65 146 153c0 89 -61 153 -146 153s-146 -64 -146 -153c0 -88 61 -153 146 -153z" />
    <glyph glyph-name="p" unicode="p" horiz-adv-x="613" 
d="M326 481c132 0 239 -109 239 -246s-107 -246 -239 -246c-60 0 -111 18 -150 48v-269h-104v702h104v-37c39 30 90 48 150 48zM311 79c87 0 150 72 150 156s-63 156 -150 156c-52 0 -100 -20 -135 -70v-172c35 -50 83 -70 135 -70z" />
    <glyph glyph-name="thorn" unicode="&#xfe;" horiz-adv-x="613" 
d="M326 481c132 0 239 -109 239 -246s-107 -246 -239 -246c-60 0 -111 18 -150 48v-269h-104v942h104v-277c39 30 90 48 150 48zM311 79c87 0 150 72 150 156s-63 156 -150 156c-52 0 -100 -20 -135 -70v-172c35 -50 83 -70 135 -70z" />
    <glyph glyph-name="q" unicode="q" horiz-adv-x="613" 
d="M438 470h103v-702h-103v270c-40 -31 -91 -49 -151 -49c-132 0 -238 109 -238 246s106 246 238 246c60 0 111 -18 151 -49v38zM302 79c52 0 101 20 136 71v170c-35 51 -84 71 -136 71c-86 0 -149 -72 -149 -156s63 -156 149 -156z" />
    <glyph glyph-name="r" unicode="r" horiz-adv-x="378" 
d="M176 406c43 47 102 74 174 74v-98c-75 -3 -132 -31 -174 -86v-296h-104v470h104v-64z" />
    <glyph glyph-name="racute" unicode="&#x155;" horiz-adv-x="378" 
d="M348 700l-97 -147h-95l77 147h115zM176 406c43 47 102 74 174 74v-98c-75 -3 -132 -31 -174 -86v-296h-104v470h104v-64z" />
    <glyph glyph-name="rcaron" unicode="&#x159;" horiz-adv-x="378" 
d="M256 544h-100l-120 151h98l73 -85l72 85h98zM176 406c43 47 102 74 174 74v-98c-75 -3 -132 -31 -174 -86v-296h-104v470h104v-64z" />
    <glyph glyph-name="rcommaaccent" unicode="&#x157;" horiz-adv-x="378" 
d="M176 406c43 47 102 74 174 74v-98c-75 -3 -132 -31 -174 -86v-296h-104v470h104v-64zM121 -54c34 0 62 -25 62 -59c0 -24 -5 -31 -62 -132h-59l37 81c-26 9 -39 29 -39 52c0 32 28 58 61 58z" />
    <glyph glyph-name="s" unicode="s" horiz-adv-x="514" 
d="M136 155c11 -58 54 -82 125 -82c61 0 103 20 103 57c0 28 -23 48 -63 55l-104 18c-72 12 -139 48 -139 133c0 91 79 147 196 147c91 0 196 -31 206 -154h-96c-5 51 -50 71 -110 71s-93 -22 -93 -55c0 -25 18 -49 73 -58l88 -14c71 -13 141 -44 141 -135
c0 -99 -87 -150 -205 -150c-111 0 -206 44 -218 168z" />
    <glyph glyph-name="sacute" unicode="&#x15b;" horiz-adv-x="514" 
d="M283 700h115l-97 -147h-95zM136 155c11 -58 54 -82 125 -82c61 0 103 20 103 57c0 28 -23 48 -63 55l-104 18c-72 12 -139 48 -139 133c0 91 79 147 196 147c91 0 196 -31 206 -154h-96c-5 51 -50 71 -110 71s-93 -22 -93 -55c0 -25 18 -49 73 -58l88 -14
c71 -13 141 -44 141 -135c0 -99 -87 -150 -205 -150c-111 0 -206 44 -218 168z" />
    <glyph glyph-name="scaron" unicode="&#x161;" horiz-adv-x="514" 
d="M329 695h98l-121 -151h-100l-120 151h98l73 -85zM136 155c11 -58 54 -82 125 -82c61 0 103 20 103 57c0 28 -23 48 -63 55l-104 18c-72 12 -139 48 -139 133c0 91 79 147 196 147c91 0 196 -31 206 -154h-96c-5 51 -50 71 -110 71s-93 -22 -93 -55c0 -25 18 -49 73 -58
l88 -14c71 -13 141 -44 141 -135c0 -99 -87 -150 -205 -150c-111 0 -206 44 -218 168z" />
    <glyph glyph-name="scedilla" unicode="&#x15f;" horiz-adv-x="514" 
d="M136 155c11 -58 54 -82 125 -82c61 0 103 20 103 57c0 28 -23 48 -63 55l-104 18c-72 12 -139 48 -139 133c0 91 79 147 196 147c91 0 196 -31 206 -154h-96c-5 51 -50 71 -110 71s-93 -22 -93 -55c0 -25 18 -49 73 -58l88 -14c71 -13 141 -44 141 -135
c0 -99 -87 -150 -205 -150c-111 0 -206 44 -218 168zM313 -59l-57 -153h-90l44 153h103z" />
    <glyph glyph-name="scommaaccent" unicode="&#x219;" horiz-adv-x="514" 
d="M136 155c11 -58 54 -82 125 -82c61 0 103 20 103 57c0 28 -23 48 -63 55l-104 18c-72 12 -139 48 -139 133c0 91 79 147 196 147c91 0 196 -31 206 -154h-96c-5 51 -50 71 -110 71s-93 -22 -93 -55c0 -25 18 -49 73 -58l88 -14c71 -13 141 -44 141 -135
c0 -99 -87 -150 -205 -150c-111 0 -206 44 -218 168zM177 -245l37 81c-26 9 -39 29 -39 52c0 32 28 58 61 58c34 0 62 -25 62 -59c0 -24 -5 -31 -62 -132h-59z" />
    <glyph glyph-name="germandbls" unicode="&#xdf;" horiz-adv-x="636" 
d="M449 362c88 -21 141 -77 141 -169c0 -120 -91 -198 -248 -198c-20 0 -42 1 -65 3v88c23 -2 45 -3 59 -3c104 0 153 47 153 112c0 68 -54 103 -129 103h-59v77c99 15 131 74 131 124c0 57 -38 102 -117 103c-87 0 -142 -56 -142 -171v-431h-103v431c0 168 93 261 243 261
c137 0 220 -77 220 -190c0 -61 -24 -110 -84 -140z" />
    <glyph glyph-name="t" unicode="t" horiz-adv-x="442" 
d="M392 102l15 -95c-41 -15 -75 -19 -107 -19c-120 0 -184 72 -184 193v202h-111v87h111v173h104v-173h174v-87h-174v-202c0 -68 34 -97 92 -97c28 0 56 8 80 18z" />
    <glyph glyph-name="tcaron" unicode="&#x165;" horiz-adv-x="442" 
d="M385 712l-33 -195h-79l7 195h105zM392 102l15 -95c-41 -15 -75 -19 -107 -19c-120 0 -184 72 -184 193v202h-111v87h111v173h104v-173h174v-87h-174v-202c0 -68 34 -97 92 -97c28 0 56 8 80 18z" />
    <glyph glyph-name="uni0163" unicode="&#x163;" horiz-adv-x="442" 
d="M407 7c-41 -15 -75 -19 -107 -19c-120 0 -184 72 -184 193v202h-111v87h111v173h104v-173h174v-87h-174v-202c0 -68 34 -97 92 -97c28 0 56 8 80 18zM173 -212l44 153h103l-57 -153h-90z" />
    <glyph glyph-name="uni021B" unicode="&#x21b;" horiz-adv-x="442" 
d="M407 7c-41 -15 -75 -19 -107 -19c-120 0 -184 72 -184 193v202h-111v87h111v173h104v-173h174v-87h-174v-202c0 -68 34 -97 92 -97c28 0 56 8 80 18zM243 -54c34 0 62 -25 62 -59c0 -24 -5 -31 -62 -132h-59l37 81c-26 9 -39 29 -39 52c0 32 28 58 61 58z" />
    <glyph glyph-name="u" unicode="u" horiz-adv-x="592" 
d="M417 470h103v-470h-103v46c-41 -37 -92 -58 -153 -58c-122 0 -204 87 -204 222v260h103v-254c0 -86 47 -134 122 -134c46 0 94 26 132 74v314z" />
    <glyph glyph-name="uacute" unicode="&#xfa;" horiz-adv-x="592" 
d="M435 700l-97 -147h-95l77 147h115zM417 470h103v-470h-103v46c-41 -37 -92 -58 -153 -58c-122 0 -204 87 -204 222v260h103v-254c0 -86 47 -134 122 -134c46 0 94 26 132 74v314z" />
    <glyph glyph-name="ucircumflex" unicode="&#xfb;" horiz-adv-x="592" 
d="M294 629l-73 -85h-98l120 151h100l121 -151h-98zM417 470h103v-470h-103v46c-41 -37 -92 -58 -153 -58c-122 0 -204 87 -204 222v260h103v-254c0 -86 47 -134 122 -134c46 0 94 26 132 74v314z" />
    <glyph glyph-name="udieresis" unicode="&#xfc;" horiz-adv-x="592" 
d="M193 560c-37 0 -67 29 -67 65c0 37 30 65 67 65s67 -28 67 -65c0 -36 -30 -65 -67 -65zM396 560c-37 0 -67 29 -67 65c0 37 30 65 67 65s67 -28 67 -65c0 -36 -30 -65 -67 -65zM417 470h103v-470h-103v46c-41 -37 -92 -58 -153 -58c-122 0 -204 87 -204 222v260h103v-254
c0 -86 47 -134 122 -134c46 0 94 26 132 74v314z" />
    <glyph glyph-name="ugrave" unicode="&#xf9;" horiz-adv-x="592" 
d="M353 554h-95l-97 147h115zM417 470h103v-470h-103v46c-41 -37 -92 -58 -153 -58c-122 0 -204 87 -204 222v260h103v-254c0 -86 47 -134 122 -134c46 0 94 26 132 74v314z" />
    <glyph glyph-name="uhungarumlaut" unicode="&#x171;" horiz-adv-x="592" 
d="M342 701l-82 -147h-87l62 147h107zM404 554h-87l61 147h107zM417 470h103v-470h-103v46c-41 -37 -92 -58 -153 -58c-122 0 -204 87 -204 222v260h103v-254c0 -86 47 -134 122 -134c46 0 94 26 132 74v314z" />
    <glyph glyph-name="umacron" unicode="&#x16b;" horiz-adv-x="592" 
d="M433 658v-85h-279v85h279zM417 470h103v-470h-103v46c-41 -37 -92 -58 -153 -58c-122 0 -204 87 -204 222v260h103v-254c0 -86 47 -134 122 -134c46 0 94 26 132 74v314z" />
    <glyph glyph-name="uogonek" unicode="&#x173;" horiz-adv-x="592" 
d="M551 -92l10 -77c-12 -5 -39 -10 -63 -10c-83 0 -139 44 -139 111c0 35 21 66 58 87v27c-41 -37 -92 -58 -153 -58c-122 0 -204 87 -204 222v260h103v-254c0 -86 47 -134 122 -134c46 0 94 26 132 74v314h103v-470h-1c-48 -10 -73 -27 -73 -57c0 -25 22 -40 65 -40
c14 0 25 2 40 5z" />
    <glyph glyph-name="uring" unicode="&#x16f;" horiz-adv-x="592" 
d="M294 543c-65 0 -109 42 -109 103s44 102 109 102s109 -41 109 -102s-44 -103 -109 -103zM294 694c-29 0 -49 -20 -49 -48c0 -29 20 -49 49 -49s49 20 49 49c0 28 -20 48 -49 48zM417 470h103v-470h-103v46c-41 -37 -92 -58 -153 -58c-122 0 -204 87 -204 222v260h103
v-254c0 -86 47 -134 122 -134c46 0 94 26 132 74v314z" />
    <glyph glyph-name="v" unicode="v" horiz-adv-x="577" 
d="M443 470h110l-219 -470h-91l-219 470h110l155 -337z" />
    <glyph glyph-name="w" unicode="w" horiz-adv-x="789" 
d="M653 470h112l-169 -470h-91l-110 326l-111 -326h-91l-169 470h112l102 -314l112 314h89l112 -313z" />
    <glyph glyph-name="wacute" unicode="&#x1e83;" horiz-adv-x="789" 
d="M536 700l-97 -147h-95l77 147h115zM653 470h112l-169 -470h-91l-110 326l-111 -326h-91l-169 470h112l102 -314l112 314h89l112 -313z" />
    <glyph glyph-name="wcircumflex" unicode="&#x175;" horiz-adv-x="789" 
d="M395 629l-73 -85h-98l120 151h100l121 -151h-98zM653 470h112l-169 -470h-91l-110 326l-111 -326h-91l-169 470h112l102 -314l112 314h89l112 -313z" />
    <glyph glyph-name="wdieresis" unicode="&#x1e85;" horiz-adv-x="789" 
d="M294 560c-37 0 -67 29 -67 65c0 37 30 65 67 65s67 -28 67 -65c0 -36 -30 -65 -67 -65zM497 560c-37 0 -67 29 -67 65c0 37 30 65 67 65s67 -28 67 -65c0 -36 -30 -65 -67 -65zM653 470h112l-169 -470h-91l-110 326l-111 -326h-91l-169 470h112l102 -314l112 314h89
l112 -313z" />
    <glyph glyph-name="wgrave" unicode="&#x1e81;" horiz-adv-x="789" 
d="M454 554h-95l-97 147h115zM653 470h112l-169 -470h-91l-110 326l-111 -326h-91l-169 470h112l102 -314l112 314h89l112 -313z" />
    <glyph glyph-name="x" unicode="x" horiz-adv-x="548" 
d="M526 0h-124l-127 165l-129 -165h-123l182 237l-181 234h127l123 -159l123 159h127l-180 -234l-1 -1z" />
    <glyph glyph-name="y" unicode="y" horiz-adv-x="608" 
d="M474 471h110l-310 -703h-109l99 225l-240 478h111l177 -368z" />
    <glyph glyph-name="yacute" unicode="&#xfd;" horiz-adv-x="608" 
d="M448 700l-97 -147h-95l77 147h115zM474 471h110l-310 -703h-109l99 225l-240 478h111l177 -368z" />
    <glyph glyph-name="ycircumflex" unicode="&#x177;" horiz-adv-x="608" 
d="M307 629l-73 -85h-98l120 151h100l121 -151h-98zM474 471h110l-310 -703h-109l99 225l-240 478h111l177 -368z" />
    <glyph glyph-name="ydieresis" unicode="&#xff;" horiz-adv-x="608" 
d="M206 560c-37 0 -67 29 -67 65c0 37 30 65 67 65s67 -28 67 -65c0 -36 -30 -65 -67 -65zM409 560c-37 0 -67 29 -67 65c0 37 30 65 67 65s67 -28 67 -65c0 -36 -30 -65 -67 -65zM474 471h110l-310 -703h-109l99 225l-240 478h111l177 -368z" />
    <glyph glyph-name="ygrave" unicode="&#x1ef3;" horiz-adv-x="608" 
d="M366 554h-95l-97 147h115zM474 471h110l-310 -703h-109l99 225l-240 478h111l177 -368z" />
    <glyph glyph-name="z" unicode="z" horiz-adv-x="496" 
d="M457 470v-56l-263 -327h263v-87h-418v49l268 335h-260v86h410z" />
    <glyph glyph-name="zacute" unicode="&#x17a;" horiz-adv-x="496" 
d="M389 700l-97 -147h-95l77 147h115zM457 470v-56l-263 -327h263v-87h-418v49l268 335h-260v86h410z" />
    <glyph glyph-name="zcaron" unicode="&#x17e;" horiz-adv-x="496" 
d="M297 544h-100l-120 151h98l73 -85l72 85h98zM457 470v-56l-263 -327h263v-87h-418v49l268 335h-260v86h410z" />
    <glyph glyph-name="zdotaccent" unicode="&#x17c;" horiz-adv-x="496" 
d="M248 560c-37 0 -67 29 -67 65c0 37 30 65 67 65s67 -28 67 -65c0 -36 -30 -65 -67 -65zM457 470v-56l-263 -327h263v-87h-418v49l268 335h-260v86h410z" />
    <glyph glyph-name="germandbls.case" horiz-adv-x="729" 
d="M492 403c114 -12 194 -88 194 -201c0 -126 -101 -216 -256 -216c-35 0 -86 4 -131 15v96c47 -15 87 -19 119 -19c96 0 159 48 159 121c0 68 -61 115 -153 115h-72v51l165 216h-181c-87 0 -144 -56 -144 -139v-442h-107v439c0 145 101 241 251 241h324v-65z" />
    <glyph glyph-name="l.ss01" horiz-adv-x="368" 
d="M176 710v-556c0 -48 23 -72 66 -72c22 0 52 5 77 13l14 -90c-42 -13 -73 -19 -106 -19c-100 0 -155 56 -155 160v564h104z" />
    <glyph glyph-name="lacute.ss01" horiz-adv-x="368" 
d="M153 940h115l-97 -147h-95zM176 710v-556c0 -48 23 -72 66 -72c22 0 52 5 77 13l14 -90c-42 -13 -73 -19 -106 -19c-100 0 -155 56 -155 160v564h104z" />
    <glyph glyph-name="lcaron.ss01" horiz-adv-x="368" 
d="M176 710v-556c0 -48 23 -72 66 -72c22 0 52 5 77 13l14 -90c-42 -13 -73 -19 -106 -19c-100 0 -155 56 -155 160v564h104zM252 710h105l-33 -195h-79z" />
    <glyph glyph-name="lcommaaccent.ss01" horiz-adv-x="368" 
d="M176 710v-556c0 -48 23 -72 66 -72c22 0 52 5 77 13l14 -90c-42 -13 -73 -19 -106 -19c-100 0 -155 56 -155 160v564h104zM140 -245l37 81c-26 9 -39 29 -39 52c0 32 28 58 61 58c34 0 62 -25 62 -59c0 -24 -5 -31 -62 -132h-59z" />
    <glyph glyph-name="ldot.ss01" horiz-adv-x="400" 
d="M176 710v-556c0 -48 23 -72 66 -72c22 0 52 5 77 13l14 -90c-42 -13 -73 -19 -106 -19c-100 0 -155 56 -155 160v564h104zM305 261c-37 0 -67 29 -67 65c0 37 30 65 67 65s67 -28 67 -65c0 -36 -30 -65 -67 -65z" />
    <glyph glyph-name="lslash.ss01" horiz-adv-x="371" 
d="M319 95l14 -90c-42 -13 -73 -19 -106 -19c-100 0 -155 56 -155 160v144l-63 -28v106l63 28v314h104v-268l82 37v-106l-82 -37v-182c0 -48 23 -72 66 -72c22 0 52 5 77 13z" />
    <glyph glyph-name="y.ss04" horiz-adv-x="601" 
d="M425 470h104v-483c0 -142 -96 -229 -234 -229c-130 0 -226 79 -239 190h106c9 -56 58 -96 133 -96c76 0 130 49 130 135v78c-42 -36 -93 -57 -150 -57c-125 0 -207 87 -207 223v239h104v-233c0 -86 46 -134 124 -134c44 0 92 26 129 72v295z" />
    <glyph glyph-name="yacute.ss04" horiz-adv-x="601" 
d="M440 700l-97 -147h-95l77 147h115zM425 470h104v-483c0 -142 -96 -229 -234 -229c-130 0 -226 79 -239 190h106c9 -56 58 -96 133 -96c76 0 130 49 130 135v78c-42 -36 -93 -57 -150 -57c-125 0 -207 87 -207 223v239h104v-233c0 -86 46 -134 124 -134c44 0 92 26 129 72
v295z" />
    <glyph glyph-name="ycircumflex.ss04" horiz-adv-x="601" 
d="M299 629l-73 -85h-98l120 151h100l121 -151h-98zM425 470h104v-483c0 -142 -96 -229 -234 -229c-130 0 -226 79 -239 190h106c9 -56 58 -96 133 -96c76 0 130 49 130 135v78c-42 -36 -93 -57 -150 -57c-125 0 -207 87 -207 223v239h104v-233c0 -86 46 -134 124 -134
c44 0 92 26 129 72v295z" />
    <glyph glyph-name="ydieresis.ss04" horiz-adv-x="601" 
d="M198 560c-37 0 -67 29 -67 65c0 37 30 65 67 65s67 -28 67 -65c0 -36 -30 -65 -67 -65zM401 560c-37 0 -67 29 -67 65c0 37 30 65 67 65s67 -28 67 -65c0 -36 -30 -65 -67 -65zM425 470h104v-483c0 -142 -96 -229 -234 -229c-130 0 -226 79 -239 190h106
c9 -56 58 -96 133 -96c76 0 130 49 130 135v78c-42 -36 -93 -57 -150 -57c-125 0 -207 87 -207 223v239h104v-233c0 -86 46 -134 124 -134c44 0 92 26 129 72v295z" />
    <glyph glyph-name="ygrave.ss04" horiz-adv-x="601" 
d="M358 554h-95l-97 147h115zM425 470h104v-483c0 -142 -96 -229 -234 -229c-130 0 -226 79 -239 190h106c9 -56 58 -96 133 -96c76 0 130 49 130 135v78c-42 -36 -93 -57 -150 -57c-125 0 -207 87 -207 223v239h104v-233c0 -86 46 -134 124 -134c44 0 92 26 129 72v295z
" />
    <glyph glyph-name="a.ss06" horiz-adv-x="542" 
d="M277 482c119 0 206 -56 206 -173v-309h-103v36c-40 -27 -90 -48 -151 -48c-119 0 -189 59 -189 153c0 86 69 136 178 136h162v32c0 52 -36 84 -103 84c-62 0 -106 -23 -113 -76h-105c9 119 111 165 218 165zM241 74c50 0 91 13 139 48v78h-164c-54 0 -77 -29 -77 -59
c0 -36 32 -67 102 -67z" />
    <glyph glyph-name="aacute.ss06" horiz-adv-x="542" 
d="M417 700l-97 -147h-95l77 147h115zM277 482c119 0 206 -56 206 -173v-309h-103v36c-40 -27 -90 -48 -151 -48c-119 0 -189 59 -189 153c0 86 69 136 178 136h162v32c0 52 -36 84 -103 84c-62 0 -106 -23 -113 -76h-105c9 119 111 165 218 165zM241 74c50 0 91 13 139 48
v78h-164c-54 0 -77 -29 -77 -59c0 -36 32 -67 102 -67z" />
    <glyph glyph-name="abreve.ss06" horiz-adv-x="542" 
d="M276 540c-85 0 -152 50 -152 150h77c0 -59 36 -80 75 -80c38 0 76 21 76 80h76c0 -100 -66 -150 -152 -150zM277 482c119 0 206 -56 206 -173v-309h-103v36c-40 -27 -90 -48 -151 -48c-119 0 -189 59 -189 153c0 86 69 136 178 136h162v32c0 52 -36 84 -103 84
c-62 0 -106 -23 -113 -76h-105c9 119 111 165 218 165zM241 74c50 0 91 13 139 48v78h-164c-54 0 -77 -29 -77 -59c0 -36 32 -67 102 -67z" />
    <glyph glyph-name="uni01CE.ss06" horiz-adv-x="542" 
d="M325 544h-100l-120 151h98l73 -85l72 85h98zM277 482c119 0 206 -56 206 -173v-309h-103v36c-40 -27 -90 -48 -151 -48c-119 0 -189 59 -189 153c0 86 69 136 178 136h162v32c0 52 -36 84 -103 84c-62 0 -106 -23 -113 -76h-105c9 119 111 165 218 165zM241 74
c50 0 91 13 139 48v78h-164c-54 0 -77 -29 -77 -59c0 -36 32 -67 102 -67z" />
    <glyph glyph-name="acircumflex.ss06" horiz-adv-x="542" 
d="M276 629l-73 -85h-98l120 151h100l121 -151h-98zM277 482c119 0 206 -56 206 -173v-309h-103v36c-40 -27 -90 -48 -151 -48c-119 0 -189 59 -189 153c0 86 69 136 178 136h162v32c0 52 -36 84 -103 84c-62 0 -106 -23 -113 -76h-105c9 119 111 165 218 165zM241 74
c50 0 91 13 139 48v78h-164c-54 0 -77 -29 -77 -59c0 -36 32 -67 102 -67z" />
    <glyph glyph-name="adieresis.ss06" horiz-adv-x="542" 
d="M175 560c-37 0 -67 29 -67 65c0 37 30 65 67 65s67 -28 67 -65c0 -36 -30 -65 -67 -65zM378 560c-37 0 -67 29 -67 65c0 37 30 65 67 65s67 -28 67 -65c0 -36 -30 -65 -67 -65zM277 482c119 0 206 -56 206 -173v-309h-103v36c-40 -27 -90 -48 -151 -48
c-119 0 -189 59 -189 153c0 86 69 136 178 136h162v32c0 52 -36 84 -103 84c-62 0 -106 -23 -113 -76h-105c9 119 111 165 218 165zM241 74c50 0 91 13 139 48v78h-164c-54 0 -77 -29 -77 -59c0 -36 32 -67 102 -67z" />
    <glyph glyph-name="agrave.ss06" horiz-adv-x="542" 
d="M335 554h-95l-97 147h115zM277 482c119 0 206 -56 206 -173v-309h-103v36c-40 -27 -90 -48 -151 -48c-119 0 -189 59 -189 153c0 86 69 136 178 136h162v32c0 52 -36 84 -103 84c-62 0 -106 -23 -113 -76h-105c9 119 111 165 218 165zM241 74c50 0 91 13 139 48v78h-164
c-54 0 -77 -29 -77 -59c0 -36 32 -67 102 -67z" />
    <glyph glyph-name="amacron.ss06" horiz-adv-x="542" 
d="M415 658v-85h-279v85h279zM277 482c119 0 206 -56 206 -173v-309h-103v36c-40 -27 -90 -48 -151 -48c-119 0 -189 59 -189 153c0 86 69 136 178 136h162v32c0 52 -36 84 -103 84c-62 0 -106 -23 -113 -76h-105c9 119 111 165 218 165zM241 74c50 0 91 13 139 48v78h-164
c-54 0 -77 -29 -77 -59c0 -36 32 -67 102 -67z" />
    <glyph glyph-name="aogonek.ss06" horiz-adv-x="542" 
d="M514 -92l10 -77c-12 -5 -39 -10 -63 -10c-83 0 -139 44 -139 111c0 35 21 66 58 87v17c-40 -27 -90 -48 -151 -48c-119 0 -189 59 -189 153c0 86 69 136 178 136h162v32c0 52 -36 84 -103 84c-62 0 -106 -23 -113 -76h-105c9 119 111 165 218 165c119 0 206 -56 206 -173
v-309h-1c-48 -10 -73 -27 -73 -57c0 -25 22 -40 65 -40c14 0 25 2 40 5zM241 74c50 0 91 13 139 48v78h-164c-54 0 -77 -29 -77 -59c0 -36 32 -67 102 -67z" />
    <glyph glyph-name="aring.ss06" horiz-adv-x="542" 
d="M276 543c-65 0 -109 42 -109 103s44 102 109 102s109 -41 109 -102s-44 -103 -109 -103zM276 694c-29 0 -49 -20 -49 -48c0 -29 20 -49 49 -49s49 20 49 49c0 28 -20 48 -49 48zM277 482c119 0 206 -56 206 -173v-309h-103v36c-40 -27 -90 -48 -151 -48
c-119 0 -189 59 -189 153c0 86 69 136 178 136h162v32c0 52 -36 84 -103 84c-62 0 -106 -23 -113 -76h-105c9 119 111 165 218 165zM241 74c50 0 91 13 139 48v78h-164c-54 0 -77 -29 -77 -59c0 -36 32 -67 102 -67z" />
    <glyph glyph-name="atilde.ss06" horiz-adv-x="542" 
d="M246 607c-35 23 -55 1 -55 -26h-84c0 115 101 139 161 103l46 -28c37 -23 55 -1 55 27h84c0 -116 -98 -142 -161 -104zM277 482c119 0 206 -56 206 -173v-309h-103v36c-40 -27 -90 -48 -151 -48c-119 0 -189 59 -189 153c0 86 69 136 178 136h162v32c0 52 -36 84 -103 84
c-62 0 -106 -23 -113 -76h-105c9 119 111 165 218 165zM241 74c50 0 91 13 139 48v78h-164c-54 0 -77 -29 -77 -59c0 -36 32 -67 102 -67z" />
    <glyph glyph-name="ordfeminine" unicode="&#xaa;" horiz-adv-x="353" 
d="M180 685c82 0 138 -48 138 -131v-192h-71v23c-24 -17 -52 -30 -90 -30c-79 0 -131 38 -131 102c0 57 46 89 118 89h103v8c0 37 -16 69 -67 69c-37 0 -66 -16 -69 -52h-73c5 82 74 114 142 114zM160 415c32 0 57 7 87 29v48h-107c-28 0 -44 -14 -44 -32
c0 -23 19 -45 64 -45z" />
    <glyph glyph-name="ordmasculine" unicode="&#xba;" horiz-adv-x="388" 
d="M194 355c-90 0 -169 69 -169 168c0 97 79 164 169 164s169 -67 169 -164c0 -99 -79 -168 -169 -168zM194 421c52 0 96 42 96 102c0 56 -44 97 -96 97c-53 0 -97 -41 -97 -97c0 -60 44 -102 97 -102z" />
    <glyph glyph-name="zero" unicode="0" horiz-adv-x="718" 
d="M360 692c190 0 300 -146 300 -352c0 -205 -110 -352 -300 -352s-301 147 -301 352c0 206 111 352 301 352zM360 85c126 0 191 108 191 255s-65 255 -191 255c-128 0 -193 -108 -193 -255s65 -255 193 -255z" />
    <glyph glyph-name="one" unicode="1" horiz-adv-x="513" 
d="M334 88h171v-88h-461v88h183v474l-173 -61v99l219 80h61v-592z" />
    <glyph glyph-name="two" unicode="2" horiz-adv-x="560" 
d="M212 88h298v-88h-454v56l216 245c74 81 121 131 121 192c0 56 -38 106 -120 106c-74 0 -122 -43 -130 -116h-106c4 126 98 209 239 209c147 0 225 -90 225 -200c0 -76 -47 -133 -140 -236z" />
    <glyph glyph-name="three" unicode="3" horiz-adv-x="573" 
d="M422 344c64 -30 100 -85 100 -157c0 -114 -98 -199 -232 -199c-135 0 -230 73 -247 190h104c12 -60 67 -98 143 -98s131 45 131 107c0 67 -56 109 -140 109h-54v87h54c71 0 118 44 118 108c0 67 -48 109 -119 109c-69 0 -116 -39 -123 -99h-105c9 115 98 191 228 191
c132 0 220 -83 220 -200c0 -65 -28 -117 -78 -148z" />
    <glyph glyph-name="four" unicode="4" horiz-adv-x="640" 
d="M598 233v-92h-98v-141h-104v141h-356v66l198 473h110l-183 -447h231v207h104v-207h98z" />
    <glyph glyph-name="five" unicode="5" horiz-adv-x="589" 
d="M301 429c140 0 235 -89 235 -214c0 -131 -96 -227 -237 -227c-136 0 -228 76 -248 197h105c18 -66 67 -105 143 -105c80 0 136 56 136 132c0 74 -57 125 -147 125h-203v343h422v-96h-323v-155h117z" />
    <glyph glyph-name="six" unicode="6" horiz-adv-x="614" 
d="M308 461c150 0 257 -99 257 -235c0 -137 -107 -238 -258 -238c-152 0 -258 102 -258 235c0 59 22 107 59 165l195 292h125l-144 -220c7 1 16 1 24 1zM307 75c90 0 154 63 154 145s-63 147 -154 147c-42 0 -79 -12 -107 -34l-3 -5c-31 -41 -44 -71 -44 -109
c0 -81 64 -144 154 -144z" />
    <glyph glyph-name="seven" unicode="7" horiz-adv-x="503" 
d="M13 680h470v-65l-292 -615h-119l276 580h-335v100z" />
    <glyph glyph-name="eight" unicode="8" horiz-adv-x="622" 
d="M456 359c75 -32 118 -92 118 -169c0 -120 -101 -202 -263 -202c-161 0 -262 82 -262 202c0 77 43 137 117 169c-56 30 -89 79 -89 146c0 111 97 187 234 187s234 -76 234 -187c0 -66 -33 -116 -89 -146zM311 608c-76 0 -129 -46 -129 -109c0 -64 53 -111 129 -111
s130 47 130 111c0 62 -54 109 -130 109zM311 77c86 0 145 51 145 120c0 67 -59 117 -145 117s-145 -49 -145 -117c0 -70 59 -120 145 -120z" />
    <glyph glyph-name="nine" unicode="9" horiz-adv-x="614" 
d="M307 692c152 0 258 -102 258 -235c0 -59 -22 -107 -59 -165l-195 -292h-125l144 220c-7 -1 -16 -1 -24 -1c-150 0 -257 99 -257 235c0 137 107 238 258 238zM414 347l3 5c31 41 44 71 44 109c0 81 -64 144 -154 144s-154 -63 -154 -145s63 -147 154 -147
c42 0 79 12 107 34z" />
    <glyph glyph-name="zero.osf" horiz-adv-x="656" 
d="M329 554c162 0 278 -113 278 -283s-116 -283 -278 -283s-280 113 -280 283s118 283 280 283zM329 83c98 0 175 75 175 188s-77 188 -175 188c-100 0 -177 -75 -177 -188s77 -188 177 -188z" />
    <glyph glyph-name="one.osf" horiz-adv-x="513" 
d="M334 88h171v-88h-461v88h183v344l-173 -61v99l219 80h61v-462z" />
    <glyph glyph-name="two.osf" horiz-adv-x="555" 
d="M247 88h258v-88h-451v56l147 107c90 66 187 126 187 194c0 56 -37 102 -117 102c-76 0 -124 -47 -130 -120h-104c4 127 89 212 230 212c145 0 229 -88 229 -198c0 -106 -97 -165 -214 -242z" />
    <glyph glyph-name="three.osf" horiz-adv-x="573" 
d="M422 204c64 -30 100 -85 100 -157c0 -114 -98 -199 -232 -199c-135 0 -230 73 -247 190h104c12 -60 67 -98 143 -98s131 45 131 107c0 67 -56 109 -140 109h-54v87h54c71 0 118 44 118 108c0 67 -48 109 -119 109c-69 0 -116 -39 -123 -99h-105c9 115 98 191 228 191
c132 0 220 -83 220 -200c0 -65 -28 -117 -78 -148z" />
    <glyph glyph-name="four.osf" horiz-adv-x="640" 
d="M598 99v-92h-98v-141h-104v141h-356v66l198 473h110l-183 -447h231v207h104v-207h98z" />
    <glyph glyph-name="five.osf" horiz-adv-x="589" 
d="M301 292c140 0 235 -89 235 -214c0 -131 -96 -227 -237 -227c-136 0 -228 76 -248 197h105c18 -66 67 -105 143 -105c80 0 136 56 136 132c0 74 -57 125 -147 125h-203v343h422v-96h-323v-155h117z" />
    <glyph glyph-name="six.osf" horiz-adv-x="614" 
d="M308 461c150 0 257 -99 257 -235c0 -137 -107 -238 -258 -238c-152 0 -258 102 -258 235c0 59 22 107 59 165l195 292h125l-144 -220c7 1 16 1 24 1zM307 75c90 0 154 63 154 145s-63 147 -154 147c-42 0 -79 -12 -107 -34l-3 -5c-31 -41 -44 -71 -44 -109
c0 -81 64 -144 154 -144z" />
    <glyph glyph-name="seven.osf" horiz-adv-x="503" 
d="M13 540h470v-65l-292 -615h-119l276 580h-335v100z" />
    <glyph glyph-name="eight.osf" horiz-adv-x="622" 
d="M456 359c75 -32 118 -92 118 -169c0 -120 -101 -202 -263 -202c-161 0 -262 82 -262 202c0 77 43 137 117 169c-56 30 -89 79 -89 146c0 111 97 187 234 187s234 -76 234 -187c0 -66 -33 -116 -89 -146zM311 608c-76 0 -129 -46 -129 -109c0 -64 53 -111 129 -111
s130 47 130 111c0 62 -54 109 -130 109zM311 77c86 0 145 51 145 120c0 67 -59 117 -145 117s-145 -49 -145 -117c0 -70 59 -120 145 -120z" />
    <glyph glyph-name="nine.osf" horiz-adv-x="614" 
d="M307 551c152 0 258 -102 258 -235c0 -59 -22 -107 -59 -165l-195 -292h-125l144 220c-7 -1 -16 -1 -24 -1c-150 0 -257 99 -257 235c0 137 107 238 258 238zM414 206l3 5c31 41 44 71 44 109c0 81 -64 144 -154 144s-154 -63 -154 -145s63 -147 154 -147
c42 0 79 12 107 34z" />
    <glyph glyph-name="zero.osf.zero" horiz-adv-x="656" 
d="M329 554c162 0 278 -113 278 -283s-116 -283 -278 -283s-280 113 -280 283s118 283 280 283zM329 459c-100 0 -177 -75 -177 -188c0 -41 10 -77 28 -106l253 260c-29 22 -65 34 -104 34zM329 83c98 0 175 75 175 188c0 41 -10 78 -28 107l-254 -260
c29 -23 66 -35 107 -35z" />
    <glyph glyph-name="zero.tf" horiz-adv-x="670" 
d="M335 692c185 0 288 -146 288 -352c0 -205 -103 -352 -288 -352s-288 147 -288 352c0 206 103 352 288 352zM335 85c122 0 179 108 179 255s-57 255 -179 255s-180 -108 -180 -255s58 -255 180 -255z" />
    <glyph glyph-name="one.tf" horiz-adv-x="670" 
d="M587 88v-88h-501v88h209v474l-173 -61v99l219 80h61v-592h185z" />
    <glyph glyph-name="two.tf" horiz-adv-x="670" 
d="M270 88h298v-88h-454v56l216 245c74 81 121 131 121 192c0 56 -38 106 -120 106c-74 0 -122 -43 -130 -116h-106c4 126 98 209 239 209c147 0 225 -90 225 -200c0 -76 -47 -133 -140 -236z" />
    <glyph glyph-name="three.tf" horiz-adv-x="670" 
d="M481 344c64 -30 100 -85 100 -157c0 -114 -98 -199 -232 -199c-135 0 -230 73 -247 190h104c12 -60 67 -98 143 -98s131 45 131 107c0 67 -56 109 -140 109h-54v87h54c71 0 118 44 118 108c0 67 -48 109 -119 109c-69 0 -116 -39 -123 -99h-105c9 115 98 191 228 191
c132 0 220 -83 220 -200c0 -65 -28 -117 -78 -148z" />
    <glyph glyph-name="four.tf" horiz-adv-x="670" 
d="M615 233v-92h-98v-141h-104v141h-356v66l198 473h110l-183 -447h231v207h104v-207h98z" />
    <glyph glyph-name="five.tf" horiz-adv-x="670" 
d="M345 429c140 0 235 -89 235 -214c0 -131 -96 -227 -237 -227c-136 0 -228 76 -248 197h105c18 -66 67 -105 143 -105c80 0 136 56 136 132c0 74 -57 125 -147 125h-203v343h422v-96h-323v-155h117z" />
    <glyph glyph-name="six.tf" horiz-adv-x="670" 
d="M334 461c150 0 257 -99 257 -235c0 -137 -107 -238 -258 -238c-152 0 -258 102 -258 235c0 59 22 107 59 165l195 292h125l-144 -220c7 1 16 1 24 1zM333 75c90 0 154 63 154 145s-63 147 -154 147c-42 0 -79 -12 -107 -34l-3 -5c-31 -41 -44 -71 -44 -109
c0 -81 64 -144 154 -144z" />
    <glyph glyph-name="seven.tf" horiz-adv-x="670" 
d="M105 680h470v-65l-292 -615h-119l276 580h-335v100z" />
    <glyph glyph-name="eight.tf" horiz-adv-x="670" 
d="M480 359c75 -32 118 -92 118 -169c0 -120 -101 -202 -263 -202c-161 0 -262 82 -262 202c0 77 43 137 117 169c-56 30 -89 79 -89 146c0 111 97 187 234 187s234 -76 234 -187c0 -66 -33 -116 -89 -146zM335 608c-76 0 -129 -46 -129 -109c0 -64 53 -111 129 -111
s130 47 130 111c0 62 -54 109 -130 109zM335 77c86 0 145 51 145 120c0 67 -59 117 -145 117s-145 -49 -145 -117c0 -70 59 -120 145 -120z" />
    <glyph glyph-name="nine.tf" horiz-adv-x="670" 
d="M340 692c152 0 258 -102 258 -235c0 -59 -22 -107 -59 -165l-195 -292h-125l144 220c-7 -1 -16 -1 -24 -1c-150 0 -257 99 -257 235c0 137 107 238 258 238zM447 347l3 5c31 41 44 71 44 109c0 81 -64 144 -154 144s-154 -63 -154 -145s63 -147 154 -147
c42 0 79 12 107 34z" />
    <glyph glyph-name="zero.zero" horiz-adv-x="718" 
d="M360 692c190 0 300 -146 300 -352c0 -205 -110 -352 -300 -352s-301 147 -301 352c0 206 111 352 301 352zM360 595c-128 0 -193 -108 -193 -255c0 -61 11 -116 34 -159l261 383c-28 20 -62 31 -102 31zM360 85c126 0 191 108 191 255c0 63 -12 119 -35 162l-262 -384
c29 -21 64 -33 106 -33z" />
    <glyph glyph-name="uni2080" unicode="&#x2080;" horiz-adv-x="445" 
d="M222 225c120 0 188 -90 188 -207s-68 -207 -188 -207c-118 0 -187 90 -187 207s69 207 187 207zM222 -116c72 0 107 61 107 134s-35 135 -107 135c-71 0 -106 -62 -106 -135s35 -134 106 -134z" />
    <glyph glyph-name="uni2081" unicode="&#x2081;" horiz-adv-x="327" 
d="M214 -114h104v-66h-288v66h109v246l-104 -30v68l137 44h42v-328z" />
    <glyph glyph-name="uni2082" unicode="&#x2082;" horiz-adv-x="364" 
d="M169 -114h160v-66h-287v41l142 148c41 42 61 64 61 94c0 31 -24 53 -60 53c-42 0 -65 -23 -67 -61h-78c2 77 53 130 142 130c92 0 141 -55 141 -117c0 -41 -19 -77 -72 -134z" />
    <glyph glyph-name="uni2083" unicode="&#x2083;" horiz-adv-x="377" 
d="M282 20c35 -18 55 -48 55 -88c0 -68 -58 -121 -147 -121c-87 0 -141 47 -153 118h79c8 -28 31 -49 75 -49c43 0 71 22 71 52c0 34 -27 53 -78 53h-32v64h32c38 0 64 22 64 53s-22 52 -61 52c-37 0 -58 -22 -61 -49h-78c6 72 59 118 138 118c85 0 137 -51 137 -120
c0 -36 -15 -64 -41 -83z" />
    <glyph glyph-name="uni2084" unicode="&#x2084;" horiz-adv-x="411" 
d="M376 -33v-69h-56v-78h-77v78h-214v50l118 268h81l-105 -249h120v113h77v-113h56z" />
    <glyph glyph-name="uni2085" unicode="&#x2085;" horiz-adv-x="388" 
d="M195 75c94 0 144 -53 144 -129s-58 -135 -148 -135c-89 0 -142 47 -153 118h78c9 -30 31 -49 75 -49c45 0 74 29 74 65c0 37 -24 63 -71 63l-62 -1h-73v209h265v-71h-192v-70h63z" />
    <glyph glyph-name="uni2086" unicode="&#x2086;" horiz-adv-x="382" 
d="M192 92c93 0 156 -60 156 -139s-63 -142 -157 -142c-93 0 -158 64 -158 140c0 35 14 63 38 101l109 164h93l-82 -124h1zM191 -125c46 0 80 31 80 74c0 44 -34 74 -80 74c-25 0 -43 -6 -58 -19l-2 -3c-10 -13 -21 -32 -21 -51c0 -42 33 -75 81 -75z" />
    <glyph glyph-name="uni2087" unicode="&#x2087;" horiz-adv-x="329" 
d="M20 216h291v-48l-170 -348h-89l157 321h-189v75z" />
    <glyph glyph-name="uni2088" unicode="&#x2088;" horiz-adv-x="405" 
d="M299 29c41 -20 63 -54 63 -97c0 -70 -60 -121 -160 -121c-98 0 -159 51 -159 121c0 43 23 77 63 97c-30 18 -47 46 -47 83c0 67 59 113 143 113c85 0 144 -46 144 -113c0 -37 -17 -65 -47 -83zM202 163c-37 0 -65 -23 -65 -56c0 -35 28 -57 65 -57c38 0 66 22 66 57
c0 33 -28 56 -66 56zM202 -122c44 0 73 24 73 59s-29 58 -73 58c-43 0 -72 -23 -72 -58s29 -59 72 -59z" />
    <glyph glyph-name="uni2089" unicode="&#x2089;" horiz-adv-x="382" 
d="M191 226c93 0 158 -64 158 -140c0 -35 -14 -63 -38 -101l-109 -164h-93l82 124h-1c-93 0 -156 60 -156 139s63 142 157 142zM249 33l2 3c10 13 21 32 21 51c0 42 -33 75 -81 75c-46 0 -80 -31 -80 -74c0 -44 34 -74 80 -74c25 0 43 6 58 19z" />
    <glyph glyph-name="zero.dnom" horiz-adv-x="445" 
d="M222 405c120 0 188 -90 188 -207s-68 -207 -188 -207c-118 0 -187 90 -187 207s69 207 187 207zM222 64c72 0 107 61 107 134s-35 135 -107 135c-71 0 -106 -62 -106 -135s35 -134 106 -134z" />
    <glyph glyph-name="one.dnom" horiz-adv-x="327" 
d="M214 66h104v-66h-288v66h109v246l-104 -30v68l137 44h42v-328z" />
    <glyph glyph-name="two.dnom" horiz-adv-x="364" 
d="M169 66h160v-66h-287v41l142 148c41 42 61 64 61 94c0 31 -24 53 -60 53c-42 0 -65 -23 -67 -61h-78c2 77 53 130 142 130c92 0 141 -55 141 -117c0 -41 -19 -77 -72 -134z" />
    <glyph glyph-name="three.dnom" horiz-adv-x="377" 
d="M282 200c35 -18 55 -48 55 -88c0 -68 -58 -121 -147 -121c-87 0 -141 47 -153 118h79c8 -28 31 -49 75 -49c43 0 71 22 71 52c0 34 -27 53 -78 53h-32v64h32c38 0 64 22 64 53s-22 52 -61 52c-37 0 -58 -22 -61 -49h-78c6 72 59 118 138 118c85 0 137 -51 137 -120
c0 -36 -15 -64 -41 -83z" />
    <glyph glyph-name="four.dnom" horiz-adv-x="411" 
d="M376 147v-69h-56v-78h-77v78h-214v50l118 268h81l-105 -249h120v113h77v-113h56z" />
    <glyph glyph-name="five.dnom" horiz-adv-x="388" 
d="M195 255c94 0 144 -53 144 -129s-58 -135 -148 -135c-89 0 -142 47 -153 118h78c9 -30 31 -49 75 -49c45 0 74 29 74 65c0 37 -24 63 -71 63l-62 -1h-73v209h265v-71h-192v-70h63z" />
    <glyph glyph-name="six.dnom" horiz-adv-x="382" 
d="M192 272c93 0 156 -60 156 -139s-63 -142 -157 -142c-93 0 -158 64 -158 140c0 35 14 63 38 101l109 164h93l-82 -124h1zM191 55c46 0 80 31 80 74c0 44 -34 74 -80 74c-25 0 -43 -6 -58 -19l-2 -3c-10 -13 -21 -32 -21 -51c0 -42 33 -75 81 -75z" />
    <glyph glyph-name="seven.dnom" horiz-adv-x="329" 
d="M20 396h291v-48l-170 -348h-89l157 321h-189v75z" />
    <glyph glyph-name="eight.dnom" horiz-adv-x="405" 
d="M299 209c41 -20 63 -54 63 -97c0 -70 -60 -121 -160 -121c-98 0 -159 51 -159 121c0 43 23 77 63 97c-30 18 -47 46 -47 83c0 67 59 113 143 113c85 0 144 -46 144 -113c0 -37 -17 -65 -47 -83zM202 343c-37 0 -65 -23 -65 -56c0 -35 28 -57 65 -57c38 0 66 22 66 57
c0 33 -28 56 -66 56zM202 58c44 0 73 24 73 59s-29 58 -73 58c-43 0 -72 -23 -72 -58s29 -59 72 -59z" />
    <glyph glyph-name="nine.dnom" horiz-adv-x="382" 
d="M191 406c93 0 158 -64 158 -140c0 -35 -14 -63 -38 -101l-109 -164h-93l82 124h-1c-93 0 -156 60 -156 139s63 142 157 142zM249 213l2 3c10 13 21 32 21 51c0 42 -33 75 -81 75c-46 0 -80 -31 -80 -74c0 -44 34 -74 80 -74c25 0 43 6 58 19z" />
    <glyph glyph-name="zero.numr" horiz-adv-x="445" 
d="M222 690c120 0 188 -90 188 -207s-68 -207 -188 -207c-118 0 -187 90 -187 207s69 207 187 207zM222 349c72 0 107 61 107 134s-35 135 -107 135c-71 0 -106 -62 -106 -135s35 -134 106 -134z" />
    <glyph glyph-name="one.numr" horiz-adv-x="327" 
d="M214 351h104v-66h-288v66h109v246l-104 -30v68l137 44h42v-328z" />
    <glyph glyph-name="two.numr" horiz-adv-x="364" 
d="M169 351h160v-66h-287v41l142 148c41 42 61 64 61 94c0 31 -24 53 -60 53c-42 0 -65 -23 -67 -61h-78c2 77 53 130 142 130c92 0 141 -55 141 -117c0 -41 -19 -77 -72 -134z" />
    <glyph glyph-name="three.numr" horiz-adv-x="377" 
d="M282 489c35 -18 55 -48 55 -88c0 -68 -58 -121 -147 -121c-87 0 -141 47 -153 118h79c8 -28 31 -49 75 -49c43 0 71 22 71 52c0 34 -27 53 -78 53h-32v64h32c38 0 64 22 64 53s-22 52 -61 52c-37 0 -58 -22 -61 -49h-78c6 72 59 118 138 118c85 0 137 -51 137 -120
c0 -36 -15 -64 -41 -83z" />
    <glyph glyph-name="four.numr" horiz-adv-x="411" 
d="M376 432v-69h-56v-78h-77v78h-214v50l118 268h81l-105 -249h120v113h77v-113h56z" />
    <glyph glyph-name="five.numr" horiz-adv-x="388" 
d="M195 540c94 0 144 -53 144 -129s-58 -135 -148 -135c-89 0 -142 47 -153 118h78c9 -30 31 -49 75 -49c45 0 74 29 74 65c0 37 -24 63 -71 63l-62 -1h-73v209h265v-71h-192v-70h63z" />
    <glyph glyph-name="six.numr" horiz-adv-x="382" 
d="M192 557c93 0 156 -60 156 -139s-63 -142 -157 -142c-93 0 -158 64 -158 140c0 35 14 63 38 101l109 164h93l-82 -124h1zM191 340c46 0 80 31 80 74c0 44 -34 74 -80 74c-25 0 -43 -6 -58 -19l-2 -3c-10 -13 -21 -32 -21 -51c0 -42 33 -75 81 -75z" />
    <glyph glyph-name="seven.numr" horiz-adv-x="329" 
d="M20 681h291v-48l-170 -348h-89l157 321h-189v75z" />
    <glyph glyph-name="eight.numr" horiz-adv-x="405" 
d="M299 498c41 -20 63 -54 63 -97c0 -70 -60 -121 -160 -121c-98 0 -159 51 -159 121c0 43 23 77 63 97c-30 18 -47 46 -47 83c0 67 59 113 143 113c85 0 144 -46 144 -113c0 -37 -17 -65 -47 -83zM202 632c-37 0 -65 -23 -65 -56c0 -35 28 -57 65 -57c38 0 66 22 66 57
c0 33 -28 56 -66 56zM202 347c44 0 73 24 73 59s-29 58 -73 58c-43 0 -72 -23 -72 -58s29 -59 72 -59z" />
    <glyph glyph-name="nine.numr" horiz-adv-x="382" 
d="M191 695c93 0 158 -64 158 -140c0 -35 -14 -63 -38 -101l-109 -164h-93l82 124h-1c-93 0 -156 60 -156 139s63 142 157 142zM249 502l2 3c10 13 21 32 21 51c0 42 -33 75 -81 75c-46 0 -80 -31 -80 -74c0 -44 34 -74 80 -74c25 0 43 6 58 19z" />
    <glyph glyph-name="uni2070" unicode="&#x2070;" horiz-adv-x="445" 
d="M222 698c120 0 188 -90 188 -207s-68 -207 -188 -207c-118 0 -187 90 -187 207s69 207 187 207zM222 357c72 0 107 61 107 134s-35 135 -107 135c-71 0 -106 -62 -106 -135s35 -134 106 -134z" />
    <glyph glyph-name="uni00B9" unicode="&#xb9;" horiz-adv-x="327" 
d="M214 362h104v-66h-288v66h109v246l-104 -30v68l137 44h42v-328z" />
    <glyph glyph-name="uni00B2" unicode="&#xb2;" horiz-adv-x="364" 
d="M169 359h160v-66h-287v41l142 148c41 42 61 64 61 94c0 31 -24 53 -60 53c-42 0 -65 -23 -67 -61h-78c2 77 53 130 142 130c92 0 141 -55 141 -117c0 -41 -19 -77 -72 -134z" />
    <glyph glyph-name="uni00B3" unicode="&#xb3;" horiz-adv-x="377" 
d="M282 496c35 -18 55 -48 55 -88c0 -68 -58 -121 -147 -121c-87 0 -141 47 -153 118h79c8 -28 31 -49 75 -49c43 0 71 22 71 52c0 34 -27 53 -78 53h-32v64h32c38 0 64 22 64 53s-22 52 -61 52c-37 0 -58 -22 -61 -49h-78c6 72 59 118 138 118c85 0 137 -51 137 -120
c0 -36 -15 -64 -41 -83z" />
    <glyph glyph-name="uni2074" unicode="&#x2074;" horiz-adv-x="411" 
d="M376 443v-69h-56v-78h-77v78h-214v50l118 268h81l-105 -249h120v113h77v-113h56z" />
    <glyph glyph-name="uni2075" unicode="&#x2075;" horiz-adv-x="388" 
d="M195 551c94 0 144 -53 144 -129s-58 -135 -148 -135c-89 0 -142 47 -153 118h78c9 -30 31 -49 75 -49c45 0 74 29 74 65c0 37 -24 63 -71 63l-62 -1h-73v209h265v-71h-192v-70h63z" />
    <glyph glyph-name="uni2076" unicode="&#x2076;" horiz-adv-x="382" 
d="M192 568c93 0 156 -60 156 -139s-63 -142 -157 -142c-93 0 -158 64 -158 140c0 35 14 63 38 101l109 164h93l-82 -124h1zM191 351c46 0 80 31 80 74c0 44 -34 74 -80 74c-25 0 -43 -6 -58 -19l-2 -3c-10 -13 -21 -32 -21 -51c0 -42 33 -75 81 -75z" />
    <glyph glyph-name="uni2077" unicode="&#x2077;" horiz-adv-x="329" 
d="M20 692h291v-48l-170 -348h-89l157 321h-189v75z" />
    <glyph glyph-name="uni2078" unicode="&#x2078;" horiz-adv-x="405" 
d="M299 502c41 -20 63 -54 63 -97c0 -70 -60 -121 -160 -121c-98 0 -159 51 -159 121c0 43 23 77 63 97c-30 18 -47 46 -47 83c0 67 59 113 143 113c85 0 144 -46 144 -113c0 -37 -17 -65 -47 -83zM202 636c-37 0 -65 -23 -65 -56c0 -35 28 -57 65 -57c38 0 66 22 66 57
c0 33 -28 56 -66 56zM202 351c44 0 73 24 73 59s-29 58 -73 58c-43 0 -72 -23 -72 -58s29 -59 72 -59z" />
    <glyph glyph-name="uni2079" unicode="&#x2079;" horiz-adv-x="382" 
d="M191 701c93 0 158 -64 158 -140c0 -35 -14 -63 -38 -101l-109 -164h-93l82 124h-1c-93 0 -156 60 -156 139s63 142 157 142zM249 508l2 3c10 13 21 32 21 51c0 42 -33 75 -81 75c-46 0 -80 -31 -80 -74c0 -44 34 -74 80 -74c25 0 43 6 58 19z" />
    <glyph glyph-name="fraction" unicode="&#x2044;" horiz-adv-x="474" 
d="M504 680l-460 -680h-74l460 680h74z" />
    <glyph glyph-name="onehalf" unicode="&#xbd;" horiz-adv-x="897" 
d="M655 680h74l-460 -680h-74zM318 285h-288v66h109v246l-104 -30v68l137 44h42v-328h104v-66zM702 66h160v-66h-287v41l142 148c41 42 61 64 61 94c0 31 -24 53 -60 53c-42 0 -65 -23 -67 -61h-78c2 77 53 130 142 130c92 0 141 -55 141 -117c0 -41 -19 -77 -72 -134z" />
    <glyph glyph-name="onequarter" unicode="&#xbc;" horiz-adv-x="906" 
d="M650 680h74l-460 -680h-74zM318 285h-288v66h109v246l-104 -30v68l137 44h42v-328h104v-66zM872 147v-69h-56v-78h-77v78h-214v50l118 268h81l-105 -249h120v113h77v-113h56z" />
    <glyph glyph-name="threequarters" unicode="&#xbe;" horiz-adv-x="884" 
d="M337 401c0 -68 -58 -121 -147 -121c-87 0 -141 47 -153 118h79c8 -28 31 -49 75 -49c43 0 71 22 71 52c0 34 -27 53 -78 53h-32v64h32c38 0 64 22 64 53s-22 52 -61 52c-37 0 -58 -22 -61 -49h-78c6 72 59 118 138 118c85 0 137 -51 137 -120c0 -36 -15 -64 -41 -83
c35 -18 55 -48 55 -88zM636 680h74l-460 -680h-74zM849 147v-69h-56v-78h-77v78h-214v50l118 268h81l-105 -249h120v113h77v-113h56z" />
    <glyph glyph-name="oneeighth" unicode="&#x215b;" horiz-adv-x="891" 
d="M642 680h74l-460 -680h-74zM318 285h-288v66h109v246l-104 -30v68l137 44h42v-328h104v-66zM785 209c41 -20 63 -54 63 -97c0 -70 -60 -121 -160 -121c-98 0 -159 51 -159 121c0 43 23 77 63 97c-30 18 -47 46 -47 83c0 67 59 113 143 113c85 0 144 -46 144 -113
c0 -37 -17 -65 -47 -83zM688 343c-37 0 -65 -23 -65 -56c0 -35 28 -57 65 -57c38 0 66 22 66 57c0 33 -28 56 -66 56zM688 58c44 0 73 24 73 59s-29 58 -73 58c-43 0 -72 -23 -72 -58s29 -59 72 -59z" />
    <glyph glyph-name="threeeighths" unicode="&#x215c;" horiz-adv-x="891" 
d="M337 401c0 -68 -58 -121 -147 -121c-87 0 -141 47 -153 118h79c8 -28 31 -49 75 -49c43 0 71 22 71 52c0 34 -27 53 -78 53h-32v64h32c38 0 64 22 64 53s-22 52 -61 52c-37 0 -58 -22 -61 -49h-78c6 72 59 118 138 118c85 0 137 -51 137 -120c0 -36 -15 -64 -41 -83
c35 -18 55 -48 55 -88zM636 680h74l-460 -680h-74zM785 209c41 -20 63 -54 63 -97c0 -70 -60 -121 -160 -121c-98 0 -159 51 -159 121c0 43 23 77 63 97c-30 18 -47 46 -47 83c0 67 59 113 143 113c85 0 144 -46 144 -113c0 -37 -17 -65 -47 -83zM688 343
c-37 0 -65 -23 -65 -56c0 -35 28 -57 65 -57c38 0 66 22 66 57c0 33 -28 56 -66 56zM688 58c44 0 73 24 73 59s-29 58 -73 58c-43 0 -72 -23 -72 -58s29 -59 72 -59z" />
    <glyph glyph-name="fiveeighths" unicode="&#x215d;" horiz-adv-x="893" 
d="M339 411c0 -76 -58 -135 -148 -135c-89 0 -142 47 -153 118h78c9 -30 31 -49 75 -49c45 0 74 29 74 65c0 37 -24 63 -71 63l-62 -1h-73v209h265v-71h-192v-70h63c94 0 144 -53 144 -129zM637 680h74l-460 -680h-74zM787 209c41 -20 63 -54 63 -97
c0 -70 -60 -121 -160 -121c-98 0 -159 51 -159 121c0 43 23 77 63 97c-30 18 -47 46 -47 83c0 67 59 113 143 113c85 0 144 -46 144 -113c0 -37 -17 -65 -47 -83zM690 343c-37 0 -65 -23 -65 -56c0 -35 28 -57 65 -57c38 0 66 22 66 57c0 33 -28 56 -66 56zM690 58
c44 0 73 24 73 59s-29 58 -73 58c-43 0 -72 -23 -72 -58s29 -59 72 -59z" />
    <glyph glyph-name="seveneighths" unicode="&#x215e;" horiz-adv-x="806" 
d="M141 285h-89l157 321h-189v75h291v-48zM533 680h74l-460 -680h-74zM701 209c41 -20 63 -54 63 -97c0 -70 -60 -121 -160 -121c-98 0 -159 51 -159 121c0 43 23 77 63 97c-30 18 -47 46 -47 83c0 67 59 113 143 113c85 0 144 -46 144 -113c0 -37 -17 -65 -47 -83zM604 343
c-37 0 -65 -23 -65 -56c0 -35 28 -57 65 -57c38 0 66 22 66 57c0 33 -28 56 -66 56zM604 58c44 0 73 24 73 59s-29 58 -73 58c-43 0 -72 -23 -72 -58s29 -59 72 -59z" />
    <glyph glyph-name="asterisk" unicode="*" horiz-adv-x="406" 
d="M260 528l101 -61l-30 -51l-98 59v-104h-61v104l-98 -59l-29 51l101 61l-101 61l29 52l98 -59v103h61v-103l98 59l30 -52z" />
    <glyph glyph-name="backslash" unicode="\" horiz-adv-x="405" 
d="M24 730h100l257 -890h-100z" />
    <glyph glyph-name="periodcentered" unicode="&#xb7;" horiz-adv-x="201" 
d="M100 214c-35 0 -65 27 -65 63s30 63 65 63c36 0 66 -27 66 -63s-30 -63 -66 -63z" />
    <glyph glyph-name="bullet" unicode="&#x2022;" horiz-adv-x="328" 
d="M163 171c-67 0 -127 58 -127 126s60 126 127 126c69 0 128 -58 128 -126s-59 -126 -128 -126z" />
    <glyph glyph-name="colon" unicode=":" horiz-adv-x="201" 
d="M100 352c-35 0 -65 27 -65 63s30 63 65 63c36 0 66 -27 66 -63s-30 -63 -66 -63zM100 -7c-35 0 -65 27 -65 63s30 63 65 63c36 0 66 -27 66 -63s-30 -63 -66 -63z" />
    <glyph glyph-name="comma" unicode="," horiz-adv-x="208" 
d="M35 -111l49 115c-27 10 -40 29 -40 53c0 35 29 62 64 62c36 0 65 -27 65 -62c0 -15 -1 -22 -21 -60l-54 -108h-63z" />
    <glyph glyph-name="ellipsis" unicode="&#x2026;" horiz-adv-x="637" 
d="M100 -7c-35 0 -65 27 -65 63s30 63 65 63c36 0 66 -27 66 -63s-30 -63 -66 -63zM315 -7c-35 0 -65 27 -65 63s30 63 65 63c36 0 66 -27 66 -63s-30 -63 -66 -63zM536 -7c-35 0 -65 27 -65 63s30 63 65 63c36 0 66 -27 66 -63s-30 -63 -66 -63z" />
    <glyph glyph-name="exclam" unicode="!" horiz-adv-x="275" 
d="M192 680l-8 -476h-93l-8 476h109zM137 -7c-35 0 -65 28 -65 64s30 63 65 63c37 0 66 -27 66 -63s-29 -64 -66 -64z" />
    <glyph glyph-name="exclamdown" unicode="&#xa1;" horiz-adv-x="275" 
d="M137 480c37 0 66 -28 66 -64s-29 -63 -66 -63c-35 0 -65 27 -65 63s30 64 65 64zM192 -207h-109l8 476h93z" />
    <glyph glyph-name="numbersign" unicode="#" horiz-adv-x="755" 
d="M586 395l-39 -123h118v-93h-147l-56 -179h-107l56 179h-168l-56 -179h-107l56 179h-101v93h130l38 123h-113v93h143l60 193h107l-60 -193h168l60 193h107l-60 -193h105v-93h-134zM478 395h-167l-39 -123h168z" />
    <glyph glyph-name="period" unicode="." horiz-adv-x="201" 
d="M100 -7c-35 0 -65 27 -65 63s30 63 65 63c36 0 66 -27 66 -63s-30 -63 -66 -63z" />
    <glyph glyph-name="question" unicode="?" horiz-adv-x="542" 
d="M281 203h-82l-8 152h60c76 0 133 50 133 123c0 71 -50 121 -124 121c-62 0 -112 -38 -122 -97h-104c12 115 93 189 221 189c131 0 230 -86 230 -212c0 -111 -78 -186 -200 -196zM238 -7c-36 0 -65 28 -65 64s29 63 65 63s66 -27 66 -63s-30 -64 -66 -64z" />
    <glyph glyph-name="questiondown" unicode="&#xbf;" horiz-adv-x="542" 
d="M304 548c36 0 65 -28 65 -64s-29 -63 -65 -63s-66 27 -66 63s30 64 66 64zM261 338h82l8 -152h-60c-76 0 -133 -50 -133 -123c0 -71 50 -121 124 -121c62 0 112 38 122 97h104c-12 -115 -93 -189 -221 -189c-131 0 -230 86 -230 212c0 111 78 186 200 196z" />
    <glyph glyph-name="quotedbl" unicode="&#x22;" horiz-adv-x="358" 
d="M44 710h88v-274h-88v274zM225 710h89v-274h-89v274z" />
    <glyph glyph-name="quotesingle" unicode="'" horiz-adv-x="176" 
d="M44 710h88v-274h-88v274z" />
    <glyph glyph-name="semicolon" unicode=";" horiz-adv-x="209" 
d="M108 352c-35 0 -65 27 -65 63s30 63 65 63c36 0 66 -27 66 -63s-30 -63 -66 -63zM36 -111l49 115c-27 10 -40 29 -40 53c0 35 29 62 64 62c36 0 65 -27 65 -62c0 -15 -1 -22 -21 -60l-54 -108h-63z" />
    <glyph glyph-name="slash" unicode="/" horiz-adv-x="405" 
d="M403 730l-257 -890h-100l257 890h100z" />
    <glyph glyph-name="underscore" unicode="_" horiz-adv-x="638" 
d="M35 -198v91h568v-91h-568z" />
    <glyph glyph-name="backslash.case" horiz-adv-x="380" 
d="M249 -47l-225 777h107l225 -777h-107z" />
    <glyph glyph-name="periodcentered.case" horiz-adv-x="201" 
d="M100 278c-35 0 -65 27 -65 63s30 63 65 63c36 0 66 -27 66 -63s-30 -63 -66 -63z" />
    <glyph glyph-name="bullet.case" horiz-adv-x="328" 
d="M163 206c-67 0 -127 58 -127 126s60 126 127 126c69 0 128 -58 128 -126s-59 -126 -128 -126z" />
    <glyph glyph-name="exclamdown.case" horiz-adv-x="275" 
d="M137 687c37 0 66 -28 66 -64s-29 -63 -66 -63c-35 0 -65 27 -65 63s30 64 65 64zM192 0h-109l8 476h93z" />
    <glyph glyph-name="questiondown.case" horiz-adv-x="542" 
d="M304 687c36 0 65 -28 65 -64s-29 -63 -65 -63s-66 27 -66 63s30 64 66 64zM261 477h82l8 -152h-60c-76 0 -133 -50 -133 -123c0 -71 50 -121 124 -121c62 0 112 38 122 97h104c-12 -115 -93 -189 -221 -189c-131 0 -230 86 -230 212c0 111 78 186 200 196z" />
    <glyph glyph-name="slash.case" horiz-adv-x="380" 
d="M131 -47h-107l225 777h107z" />
    <glyph glyph-name="braceleft" unicode="{" horiz-adv-x="354" 
d="M227 424c0 -67 -13 -102 -74 -121c61 -19 74 -54 74 -122v-139c0 -48 36 -81 90 -81v-101c-116 0 -193 73 -193 182v136c0 68 -26 79 -90 79v92c64 0 90 11 90 78v136c0 109 77 182 193 182v-101c-54 0 -90 -32 -90 -81v-139z" />
    <glyph glyph-name="braceright" unicode="}" horiz-adv-x="366" 
d="M139 424v139c0 49 -36 81 -90 81v101c116 0 193 -73 193 -182v-136c0 -67 26 -78 90 -78v-92c-64 0 -90 -11 -90 -79v-136c0 -109 -77 -182 -193 -182v101c54 0 90 33 90 81v139c0 68 13 103 74 122c-61 19 -74 54 -74 121z" />
    <glyph glyph-name="bracketleft" unicode="[" horiz-adv-x="365" 
d="M185 631v-664h143v-100h-247v863h247v-99h-143z" />
    <glyph glyph-name="bracketright" unicode="]" horiz-adv-x="365" 
d="M180 631h-143v99h247v-863h-247v100h143v664z" />
    <glyph glyph-name="parenleft" unicode="(" horiz-adv-x="359" 
d="M164 302c0 -159 62 -261 167 -364l-66 -68c-135 114 -206 261 -206 432c0 172 71 318 206 432l66 -67c-105 -104 -167 -205 -167 -365z" />
    <glyph glyph-name="parenright" unicode=")" horiz-adv-x="359" 
d="M94 734c135 -114 206 -260 206 -432c0 -171 -71 -318 -206 -432l-66 68c105 103 167 205 167 364c0 160 -62 261 -167 365z" />
    <glyph glyph-name="braceleft.case" horiz-adv-x="354" 
d="M227 466c0 -68 -13 -103 -74 -122c61 -19 74 -54 74 -121v-98c0 -48 36 -81 90 -81v-101c-116 0 -193 73 -193 182v95c0 67 -26 78 -90 78v92c64 0 90 11 90 79v94c0 109 77 182 193 182v-101c-54 0 -90 -32 -90 -81v-97z" />
    <glyph glyph-name="braceright.case" horiz-adv-x="366" 
d="M139 466v97c0 49 -36 81 -90 81v101c116 0 193 -73 193 -182v-94c0 -68 26 -79 90 -79v-92c-64 0 -90 -11 -90 -78v-95c0 -109 -77 -182 -193 -182v101c54 0 90 33 90 81v98c0 67 13 102 74 121c-61 19 -74 54 -74 122z" />
    <glyph glyph-name="bracketleft.case" horiz-adv-x="365" 
d="M185 631v-578h143v-99h-247v776h247v-99h-143z" />
    <glyph glyph-name="bracketright.case" horiz-adv-x="365" 
d="M180 631h-143v99h247v-776h-247v99h143v578z" />
    <glyph glyph-name="parenleft.case" horiz-adv-x="347" 
d="M167 345c0 -144 47 -216 152 -320l-66 -67c-131 114 -194 223 -194 387s63 275 194 389l66 -67c-105 -104 -152 -178 -152 -322z" />
    <glyph glyph-name="parenright.case" horiz-adv-x="347" 
d="M94 734c131 -114 194 -225 194 -389s-63 -273 -194 -387l-66 67c105 104 152 176 152 320s-47 218 -152 322z" />
    <glyph glyph-name="emdash" unicode="&#x2014;" horiz-adv-x="1032" 
d="M108 221h816v89h-816v-89z" />
    <glyph glyph-name="endash" unicode="&#x2013;" horiz-adv-x="712" 
d="M108 221h497v89h-497v-89z" />
    <glyph glyph-name="hyphen" unicode="-" horiz-adv-x="555" 
d="M108 217h340v96h-340v-96z" />
    <glyph glyph-name="emdash.case" horiz-adv-x="1032" 
d="M108 289h816v89h-816v-89z" />
    <glyph glyph-name="endash.case" horiz-adv-x="712" 
d="M108 289h497v89h-497v-89z" />
    <glyph glyph-name="hyphen.case" horiz-adv-x="555" 
d="M108 285h340v96h-340v-96z" />
    <glyph glyph-name="guillemotleft" unicode="&#xab;" horiz-adv-x="445" 
d="M133 404h101l-99 -152l99 -151h-101l-99 151zM311 404h101l-99 -152l99 -151h-101l-99 151z" />
    <glyph glyph-name="guillemotright" unicode="&#xbb;" horiz-adv-x="445" 
d="M135 404l99 -152l-99 -151h-101l99 151l-99 152h101zM312 404l99 -152l-99 -151h-101l99 151l-99 152h101z" />
    <glyph glyph-name="guilsinglleft" unicode="&#x2039;" horiz-adv-x="268" 
d="M133 404h101l-99 -152l99 -151h-101l-99 151z" />
    <glyph glyph-name="guilsinglright" unicode="&#x203a;" horiz-adv-x="268" 
d="M135 404l99 -152l-99 -151h-101l99 151l-99 152h101z" />
    <glyph glyph-name="quotedblbase" unicode="&#x201e;" horiz-adv-x="388" 
d="M35 -111l49 115c-27 10 -40 29 -40 53c0 35 29 62 64 62c36 0 65 -27 65 -62c0 -15 -1 -22 -21 -60l-54 -108h-63zM215 -111l49 115c-27 10 -40 29 -40 53c0 35 29 62 64 62c36 0 65 -27 65 -62c0 -15 -1 -22 -21 -60l-54 -108h-63z" />
    <glyph glyph-name="quotedblleft" unicode="&#x201c;" horiz-adv-x="386" 
d="M173 711l-49 -115c27 -10 40 -29 40 -53c0 -35 -29 -62 -64 -62c-36 0 -65 27 -65 62c0 15 1 22 21 60l54 108h63zM351 711l-49 -115c27 -10 40 -29 40 -53c0 -35 -29 -62 -64 -62c-36 0 -65 27 -65 62c0 15 1 22 21 60l54 108h63z" />
    <glyph glyph-name="quotedblright" unicode="&#x201d;" horiz-adv-x="386" 
d="M35 482l49 115c-27 10 -40 29 -40 53c0 35 29 62 64 62c36 0 65 -27 65 -62c0 -15 -1 -22 -21 -60l-54 -108h-63zM213 482l49 115c-27 10 -40 29 -40 53c0 35 29 62 64 62c36 0 65 -27 65 -62c0 -15 -1 -22 -21 -60l-54 -108h-63z" />
    <glyph glyph-name="quoteleft" unicode="&#x2018;" horiz-adv-x="208" 
d="M173 711l-49 -115c27 -10 40 -29 40 -53c0 -35 -29 -62 -64 -62c-36 0 -65 27 -65 62c0 15 1 22 21 60l54 108h63z" />
    <glyph glyph-name="quoteright" unicode="&#x2019;" horiz-adv-x="208" 
d="M35 482l49 115c-27 10 -40 29 -40 53c0 35 29 62 64 62c36 0 65 -27 65 -62c0 -15 -1 -22 -21 -60l-54 -108h-63z" />
    <glyph glyph-name="quotesinglbase" unicode="&#x201a;" horiz-adv-x="208" 
d="M35 -111l49 115c-27 10 -40 29 -40 53c0 35 29 62 64 62c36 0 65 -27 65 -62c0 -15 -1 -22 -21 -60l-54 -108h-63z" />
    <glyph glyph-name="guillemotleft.case" horiz-adv-x="445" 
d="M133 487h101l-99 -152l99 -151h-101l-99 151zM311 487h101l-99 -152l99 -151h-101l-99 151z" />
    <glyph glyph-name="guillemotright.case" horiz-adv-x="445" 
d="M135 487l99 -152l-99 -151h-101l99 151l-99 152h101zM312 487l99 -152l-99 -151h-101l99 151l-99 152h101z" />
    <glyph glyph-name="guilsinglleft.case" horiz-adv-x="268" 
d="M133 487h101l-99 -152l99 -151h-101l-99 151z" />
    <glyph glyph-name="guilsinglright.case" horiz-adv-x="268" 
d="M135 487l99 -152l-99 -151h-101l99 151l-99 152h101z" />
    <glyph glyph-name="space" unicode=" " horiz-adv-x="265" 
 />
    <glyph glyph-name="cent" unicode="&#xa2;" horiz-adv-x="575" 
d="M297 82c63 0 110 36 123 89h106c-15 -93 -86 -161 -181 -179v-108h-94v108c-118 20 -202 119 -202 243c0 123 84 222 202 243v121h94v-121c95 -18 166 -86 181 -179h-106c-13 53 -60 89 -123 89c-87 0 -144 -68 -144 -153s57 -153 144 -153z" />
    <glyph glyph-name="dollar" unicode="$" horiz-adv-x="666" 
d="M404 381c127 -25 200 -79 200 -184c0 -113 -83 -191 -212 -206v-114h-94v113c-140 15 -232 99 -244 231h107c13 -86 81 -137 189 -137c89 0 144 37 144 100c0 41 -27 78 -107 92l-119 23c-127 24 -186 89 -186 189c0 114 85 191 216 203v116h94v-119
c105 -15 201 -73 214 -205h-106c-12 72 -61 116 -160 116c-87 0 -144 -37 -144 -103c0 -54 40 -82 113 -96z" />
    <glyph glyph-name="Euro" unicode="&#x20ac;" horiz-adv-x="870" 
d="M482 88c113 0 191 64 218 170h111c-32 -163 -159 -271 -329 -271c-154 0 -284 93 -333 231h-108v74h91c-2 16 -3 32 -3 48c0 9 0 19 1 28h-89v74h102c42 150 177 250 339 250c170 0 297 -106 329 -269h-111c-27 105 -105 169 -218 169c-104 0 -189 -59 -225 -150h292
l-19 -74h-291c-1 -9 -1 -18 -1 -28c0 -17 1 -33 4 -48h270l-19 -74h-227c40 -79 120 -130 216 -130z" />
    <glyph glyph-name="florin" unicode="&#x192;" horiz-adv-x="544" 
d="M426 589c-61 0 -94 -39 -101 -99l-16 -117h169v-88h-181l-25 -191c-15 -117 -77 -196 -189 -196c-30 0 -69 5 -106 15l15 90c25 -5 54 -9 72 -9c61 0 93 40 101 100l25 191h-130v88h142l15 117c16 116 78 195 189 195c31 0 70 -5 106 -15l-15 -90c-24 5 -53 9 -71 9z" />
    <glyph glyph-name="sterling" unicode="&#xa3;" horiz-adv-x="619" 
d="M206 278v-187h369v-91h-539v91h66v187h-66v91h66v89c0 142 98 234 243 234c134 0 226 -78 240 -200h-105c-12 67 -62 108 -135 108c-84 0 -139 -55 -139 -142v-89h214v-91h-214z" />
    <glyph glyph-name="uni20B9" unicode="&#x20b9;" horiz-adv-x="615" 
d="M544 596h-166c24 -28 41 -61 48 -100h118v-84h-119c-18 -97 -100 -158 -211 -176l267 -236h-154l-256 230v99h103c73 0 125 31 142 83h-242v84h243c-17 53 -69 85 -143 85h-103v99h473v-84z" />
    <glyph glyph-name="yen" unicode="&#xa5;" horiz-adv-x="683" 
d="M671 680l-243 -396h147v-76h-179v-55h179v-76h-179v-77h-109v77h-179v76h179v55h-179v76h147l-243 396h119l210 -344l211 344h119z" />
    <glyph glyph-name="cent.tf" horiz-adv-x="670" 
d="M347 82c63 0 110 36 123 89h106c-15 -93 -86 -161 -181 -179v-108h-94v108c-118 20 -202 119 -202 243c0 123 84 222 202 243v121h94v-121c95 -18 166 -86 181 -179h-106c-13 53 -60 89 -123 89c-87 0 -144 -68 -144 -153s57 -153 144 -153z" />
    <glyph glyph-name="dollar.tf" horiz-adv-x="670" 
d="M403 381c127 -25 200 -79 200 -184c0 -113 -83 -191 -212 -206v-114h-94v113c-140 15 -232 99 -244 231h107c13 -86 81 -137 189 -137c89 0 144 37 144 100c0 41 -27 78 -107 92l-119 23c-127 24 -186 89 -186 189c0 114 85 191 216 203v116h94v-119
c105 -15 201 -73 214 -205h-106c-12 72 -61 116 -160 116c-87 0 -144 -37 -144 -103c0 -54 40 -82 113 -96z" />
    <glyph glyph-name="Euro.tf" horiz-adv-x="670" 
d="M379 85c52 0 93 16 114 48h128c-39 -91 -125 -145 -242 -145c-150 0 -250 91 -286 230h-60v74h47c-1 16 -2 32 -2 48c0 9 0 19 1 28h-46v74h55c31 151 134 250 291 250c124 0 214 -61 251 -163h-121c-22 43 -69 66 -130 66c-95 0 -156 -61 -180 -153h280l-20 -74h-271
c-1 -9 -1 -18 -1 -28c0 -17 1 -33 2 -48h252l-18 -74h-218c28 -81 86 -133 174 -133z" />
    <glyph glyph-name="florin.tf" horiz-adv-x="670" 
d="M522 589c-61 0 -94 -39 -101 -99l-16 -117h169v-88h-181l-25 -191c-15 -117 -77 -196 -189 -196c-30 0 -69 5 -106 15l15 90c25 -5 54 -9 72 -9c61 0 93 40 101 100l25 191h-130v88h142l15 117c16 116 78 195 189 195c31 0 70 -5 106 -15l-15 -90c-24 5 -53 9 -71 9z" />
    <glyph glyph-name="uni20B9.tf" horiz-adv-x="670" 
d="M592 596h-166c24 -28 41 -61 48 -100h118v-84h-119c-18 -97 -100 -158 -211 -176l267 -236h-154l-256 230v99h103c73 0 125 31 142 83h-242v84h243c-17 53 -69 85 -143 85h-103v99h473v-84z" />
    <glyph glyph-name="sterling.tf" horiz-adv-x="670" 
d="M236 278v-187h369v-91h-539v91h66v187h-66v91h66v89c0 142 98 234 243 234c134 0 226 -78 240 -200h-105c-12 67 -62 108 -135 108c-84 0 -139 -55 -139 -142v-89h214v-91h-214z" />
    <glyph glyph-name="yen.tf" horiz-adv-x="670" 
d="M623 680l-206 -396h152v-76h-179v-55h179v-76h-179v-77h-109v77h-179v76h179v55h-179v76h152l-206 396h120l167 -332l168 332h120z" />
    <glyph glyph-name="plus" unicode="+" horiz-adv-x="688" 
d="M581 280h-187v-181h-100v181h-186v96h186v181h100v-181h187v-96z" />
    <glyph glyph-name="minus" unicode="&#x2212;" horiz-adv-x="687" 
d="M108 280v96h472v-96h-472z" />
    <glyph glyph-name="multiply" unicode="&#xd7;" horiz-adv-x="673" 
d="M405 321l149 -149l-69 -68l-148 149l-149 -149l-68 68l149 149l-149 148l68 69l149 -149l148 149l69 -69z" />
    <glyph glyph-name="divide" unicode="&#xf7;" horiz-adv-x="687" 
d="M344 458c-35 0 -63 27 -63 61s28 61 63 61c34 0 63 -27 63 -61s-29 -61 -63 -61zM108 280v96h472v-96h-472zM344 81c-35 0 -63 27 -63 61s28 61 63 61c34 0 63 -27 63 -61s-29 -61 -63 -61z" />
    <glyph glyph-name="equal" unicode="=" horiz-adv-x="697" 
d="M590 471v-96h-482v96h482zM590 273v-96h-482v96h482z" />
    <glyph glyph-name="greater" unicode="&#x3e;" horiz-adv-x="547" 
d="M495 356v-104l-422 -195v104l307 143l-307 143v104z" />
    <glyph glyph-name="less" unicode="&#x3c;" horiz-adv-x="547" 
d="M52 356l422 195v-104l-307 -143l307 -143v-104l-422 195v104z" />
    <glyph glyph-name="plusminus" unicode="&#xb1;" horiz-adv-x="687" 
d="M580 419v-96h-186v-143h-100v143h-186v96h186v143h100v-143h186zM108 134h472v-96h-472v96z" />
    <glyph glyph-name="asciitilde" unicode="~" horiz-adv-x="448" 
d="M417 402c0 -128 -111 -155 -176 -116l-58 36c-37 23 -61 0 -61 -32h-91c0 128 111 155 177 116l57 -36c37 -23 61 0 61 32h91z" />
    <glyph glyph-name="percent" unicode="%" horiz-adv-x="1085" 
d="M278 692c110 0 194 -78 194 -192c0 -116 -84 -194 -194 -194s-194 78 -194 194c0 114 84 192 194 192zM804 680l-460 -680h-74l460 680h74zM278 381c64 0 116 49 116 119c0 69 -52 117 -116 117s-116 -48 -116 -117c0 -70 52 -119 116 -119zM807 374
c110 0 195 -78 195 -192c0 -116 -85 -194 -195 -194c-109 0 -194 78 -194 194c0 114 85 192 194 192zM807 63c64 0 116 49 116 119c0 69 -52 117 -116 117c-63 0 -115 -48 -115 -117c0 -70 52 -119 115 -119z" />
    <glyph glyph-name="perthousand" unicode="&#x2030;" horiz-adv-x="1540" 
d="M278 692c110 0 194 -78 194 -192c0 -116 -84 -194 -194 -194s-194 78 -194 194c0 114 84 192 194 192zM804 680l-460 -680h-74l460 680h74zM278 381c64 0 116 49 116 119c0 69 -52 117 -116 117s-116 -48 -116 -117c0 -70 52 -119 116 -119zM807 374
c110 0 195 -78 195 -192c0 -116 -85 -194 -195 -194c-109 0 -194 78 -194 194c0 114 85 192 194 192zM1262 374c110 0 195 -78 195 -192c0 -116 -85 -194 -195 -194c-109 0 -194 78 -194 194c0 114 85 192 194 192zM807 63c64 0 116 49 116 119c0 69 -52 117 -116 117
c-63 0 -115 -48 -115 -117c0 -70 52 -119 115 -119zM1262 63c64 0 116 49 116 119c0 69 -52 117 -116 117c-63 0 -115 -48 -115 -117c0 -70 52 -119 115 -119z" />
    <glyph glyph-name="arrowup" unicode="&#x2191;" horiz-adv-x="780" 
d="M341 0v510l-227 -232l-69 69l345 345l345 -345l-68 -69l-227 231v-509h-99z" />
    <glyph glyph-name="uni2197" unicode="&#x2197;" horiz-adv-x="811" 
d="M41 69l514 514l-323 -1l1 98h488v-488l-98 -1l1 322l-514 -514z" />
    <glyph glyph-name="arrowright" unicode="&#x2192;" horiz-adv-x="766" 
d="M40 292v99h509l-231 227l69 68l345 -345l-345 -345l-69 69l232 227h-510z" />
    <glyph glyph-name="uni2198" unicode="&#x2198;" horiz-adv-x="801" 
d="M31 611l69 70l514 -514l-1 322l98 -1v-488h-488l-1 98l323 -1z" />
    <glyph glyph-name="arrowdown" unicode="&#x2193;" horiz-adv-x="780" 
d="M341 680h99v-509l227 231l68 -69l-345 -345l-345 345l69 69l227 -232v510z" />
    <glyph glyph-name="uni2199" unicode="&#x2199;" horiz-adv-x="795" 
d="M770 611l-514 -514l323 1l-1 -98h-488v488l98 1l-1 -322l514 514z" />
    <glyph glyph-name="arrowleft" unicode="&#x2190;" horiz-adv-x="766" 
d="M726 292h-510l232 -227l-69 -69l-345 345l345 345l69 -68l-231 -227h509v-99z" />
    <glyph glyph-name="uni2196" unicode="&#x2196;" horiz-adv-x="801" 
d="M770 69l-69 -70l-514 514l1 -322l-98 1v488h488l1 -98l-323 1z" />
    <glyph glyph-name="arrowup.ss05" horiz-adv-x="565" 
d="M392 402l64 -64l-257 -255l-63 63l192 192l-194 193l64 63z" />
    <glyph glyph-name="arrowright.ss05" horiz-adv-x="570" 
d="M432 531l-194 -193l192 -192l-63 -63l-257 255l64 64l194 192z" />
    <glyph glyph-name="arrowdown.ss05" horiz-adv-x="697" 
d="M541 465l63 -63l-255 -257l-64 64l-192 194l63 64l193 -194z" />
    <glyph glyph-name="arrowleft.ss05" horiz-adv-x="697" 
d="M604 211l-63 -63l-192 192l-193 -194l-63 64l192 194l64 64z" />
    <glyph glyph-name="at" unicode="@" horiz-adv-x="996" 
d="M604 429h92v-225c0 -65 22 -95 66 -95c61 0 90 54 90 137c0 195 -152 339 -349 339c-198 0 -358 -151 -358 -346c0 -196 162 -345 353 -345c81 0 161 27 223 76l43 -64c-74 -55 -167 -86 -265 -86c-236 0 -431 178 -431 419c0 240 193 420 435 420s425 -174 425 -411
c0 -123 -48 -217 -166 -217c-73 0 -113 27 -134 67c-36 -42 -90 -68 -151 -68c-113 0 -200 89 -200 205c0 117 87 205 200 205c50 0 94 -17 127 -44v33zM492 113c38 0 84 18 114 66c-1 15 -2 30 -2 46v70c-28 43 -71 64 -112 64c-62 0 -121 -47 -121 -123
c0 -77 59 -123 121 -123z" />
    <glyph glyph-name="ampersand" unicode="&#x26;" horiz-adv-x="725" 
d="M704 0h-137l-72 66c-57 -52 -125 -80 -207 -80c-149 0 -248 84 -248 207c0 84 50 150 126 185c-36 45 -53 83 -53 130c0 110 89 187 207 187c116 0 192 -75 205 -192h-104c-8 64 -48 99 -102 99c-57 0 -99 -39 -99 -96c0 -62 51 -107 151 -198l117 -108l95 144h109
l-129 -197l-7 -10zM289 78c49 0 97 18 138 51l-146 134c-19 17 -36 33 -51 48c-55 -24 -89 -65 -89 -116c0 -65 62 -117 148 -117z" />
    <glyph glyph-name="paragraph" unicode="&#xb6;" horiz-adv-x="759" 
d="M279 680h408v-840h-108v747h-107v-747h-108v377h-85c-141 0 -251 95 -251 237c0 136 110 226 251 226zM364 587h-85c-85 0 -146 -54 -146 -134c0 -83 61 -139 146 -139h85v273z" />
    <glyph glyph-name="section" unicode="&#xa7;" horiz-adv-x="544" 
d="M509 227c0 -62 -34 -102 -79 -124c23 -28 34 -61 34 -100c0 -103 -84 -163 -193 -163c-120 0 -200 73 -214 181h113c6 -51 38 -87 100 -87c50 0 87 26 87 72c0 37 -22 60 -71 83l-112 52c-104 48 -139 97 -139 163c0 63 34 102 79 125c-23 28 -35 61 -35 100
c0 102 84 161 194 161c120 0 200 -72 214 -180h-113c-6 51 -39 87 -100 87c-50 0 -87 -27 -87 -72c0 -37 21 -59 71 -82l112 -53c103 -49 139 -97 139 -163zM220 223l119 -55c4 -2 8 -4 12 -5c31 6 53 30 53 62c0 34 -26 57 -80 83l-119 55c-4 2 -7 4 -11 5
c-31 -6 -54 -30 -54 -63c0 -32 25 -56 80 -82z" />
    <glyph glyph-name="copyright" unicode="&#xa9;" horiz-adv-x="845" 
d="M423 695c198 0 364 -152 364 -355s-166 -355 -364 -355s-364 152 -364 355s166 355 364 355zM422 54c156 0 291 125 291 286c0 162 -135 286 -291 286c-157 0 -291 -124 -291 -286c0 -161 134 -286 291 -286zM423 439c-56 0 -99 -45 -99 -100c0 -56 43 -101 99 -101
c42 0 76 24 88 59h81c-15 -79 -84 -132 -168 -132c-100 0 -177 74 -177 174c0 99 77 173 177 173c84 0 153 -52 168 -132h-81c-12 35 -46 59 -88 59z" />
    <glyph glyph-name="registered" unicode="&#xae;" horiz-adv-x="563" 
d="M282 693c134 0 246 -103 246 -241c0 -137 -112 -239 -246 -239c-135 0 -247 102 -247 239c0 138 112 241 247 241zM281 266c100 0 188 83 188 186c0 105 -88 187 -188 187c-101 0 -187 -82 -187 -187c0 -103 86 -186 187 -186zM378 491c0 -32 -19 -56 -48 -67l55 -73h-55
l-48 67h-37v-67h-44v216h92c49 0 85 -30 85 -76zM245 526v-69h48c24 0 40 14 40 35c0 20 -16 34 -40 34h-48z" />
    <glyph glyph-name="uni2117" unicode="&#x2117;" horiz-adv-x="845" 
d="M423 695c198 0 364 -152 364 -355s-166 -355 -364 -355s-364 152 -364 355s166 355 364 355zM422 626c-156 0 -291 -124 -291 -286c0 -161 135 -286 291 -286s291 125 291 286c0 162 -135 286 -291 286zM445 515c79 0 134 -46 134 -116s-55 -112 -137 -112h-69v-105h-63
v333h135zM444 455h-71v-111h71c43 0 69 22 69 56c0 33 -26 55 -69 55z" />
    <glyph glyph-name="trademark" unicode="&#x2122;" horiz-adv-x="691" 
d="M289 679v-57h-101v-235h-59v235h-101v57h261zM644 679v-292h-60v170l-85 -134h-32l-86 134l1 -170h-59v292h44l116 -177l116 177h45z" />
    <glyph glyph-name="degree" unicode="&#xb0;" horiz-adv-x="475" 
d="M238 695c98 0 171 -71 171 -167s-73 -167 -171 -167c-99 0 -172 71 -172 167s73 167 172 167zM238 439c50 0 91 40 91 89s-41 89 -91 89s-91 -40 -91 -89s41 -89 91 -89z" />
    <glyph glyph-name="bar" unicode="|" horiz-adv-x="317" 
d="M110 730h97v-890h-97v890z" />
    <glyph glyph-name="brokenbar" unicode="&#xa6;" horiz-adv-x="317" 
d="M207 730v-394h-97v394h97zM207 234v-394h-97v394h97z" />
    <glyph glyph-name="dagger" unicode="&#x2020;" horiz-adv-x="407" 
d="M358 532h-120v-218h-69v218h-120v70h120v119h69v-119h120v-70z" />
    <glyph glyph-name="daggerdbl" unicode="&#x2021;" horiz-adv-x="407" 
d="M238 553v-65h120v-70h-120v-104h-69v104h-120v70h120v65h-120v70h120v98h69v-98h120v-70h-120z" />
    <glyph glyph-name="uni2116" unicode="&#x2116;" horiz-adv-x="1386" 
d="M569 190v490h107v-680h-86l-401 480v-480h-108v680h83zM1055 171c-146 0 -250 103 -250 247s104 247 250 247s250 -103 250 -247s-104 -247 -250 -247zM1055 571c-85 0 -146 -64 -146 -153c0 -88 61 -153 146 -153s146 65 146 153c0 89 -61 153 -146 153zM817 0v92h475
v-92h-475z" />
    <glyph glyph-name="asciicircum" unicode="^" horiz-adv-x="408" 
d="M250 680l133 -237h-96l-83 159l-83 -159h-96l133 237h92z" />
    <glyph glyph-name="at.case" horiz-adv-x="996" 
d="M604 499h92v-225c0 -65 22 -95 66 -95c61 0 90 54 90 137c0 195 -152 339 -349 339c-198 0 -358 -151 -358 -346c0 -196 162 -345 353 -345c81 0 161 27 223 76l43 -64c-74 -55 -167 -86 -265 -86c-236 0 -431 178 -431 419c0 240 193 420 435 420s425 -174 425 -411
c0 -123 -48 -217 -166 -217c-73 0 -113 27 -134 67c-36 -42 -90 -68 -151 -68c-113 0 -200 89 -200 205c0 117 87 205 200 205c50 0 94 -17 127 -44v33zM492 183c38 0 84 18 114 66c-1 15 -2 30 -2 46v70c-28 43 -71 64 -112 64c-62 0 -121 -47 -121 -123
c0 -77 59 -123 121 -123z" />
    <glyph glyph-name="bar.case" horiz-adv-x="317" 
d="M110 730h97v-777h-97v777z" />
    <glyph glyph-name="brokenbar.case" horiz-adv-x="317" 
d="M207 730v-338h-97v338h97zM207 290v-337h-97v337h97z" />
    <glyph glyph-name="registered.ss07" horiz-adv-x="845" 
d="M423 695c198 0 364 -152 364 -355s-166 -355 -364 -355s-364 152 -364 355s166 355 364 355zM422 54c156 0 291 125 291 286c0 162 -135 286 -291 286s-291 -124 -291 -286c0 -161 135 -286 291 -286zM570 399c0 -50 -28 -86 -74 -102l85 -115h-80l-76 105h-60v-105h-64
v333h135c80 0 134 -46 134 -116zM365 455v-111h70c43 0 69 22 69 56c0 33 -26 55 -69 55h-70z" />
    <glyph glyph-name="uni0326" unicode="&#x326;" horiz-adv-x="0" 
d="M-365 -245l37 81c-26 9 -39 29 -39 52c0 32 28 58 61 58c34 0 62 -25 62 -59c0 -24 -5 -31 -62 -132h-59z" />
    <glyph glyph-name="acute" unicode="&#xb4;" 
d="M317 706h115l-97 -147h-95z" />
    <glyph glyph-name="breve" unicode="&#x2d8;" 
d="M452 692c0 -100 -66 -150 -152 -150c-85 0 -152 50 -152 150h77c0 -59 36 -80 75 -80c38 0 76 21 76 80h76z" />
    <glyph glyph-name="caron" unicode="&#x2c7;" 
d="M373 703h98l-121 -151h-100l-120 151h98l73 -85z" />
    <glyph glyph-name="cedilla" unicode="&#xb8;" 
d="M360 -59l-57 -153h-90l44 153h103z" />
    <glyph glyph-name="circumflex" unicode="&#x2c6;" 
d="M373 552l-72 85l-73 -85h-98l120 151h100l121 -151h-98z" />
    <glyph glyph-name="dieresis" unicode="&#xa8;" 
d="M199 685c37 0 67 -28 67 -65c0 -36 -30 -65 -67 -65s-67 29 -67 65c0 37 30 65 67 65zM402 685c37 0 67 -28 67 -65c0 -36 -30 -65 -67 -65s-67 29 -67 65c0 37 30 65 67 65z" />
    <glyph glyph-name="dotaccent" unicode="&#x2d9;" 
d="M300 555c-37 0 -67 29 -67 65c0 37 30 65 67 65s67 -28 67 -65c0 -36 -30 -65 -67 -65z" />
    <glyph glyph-name="grave" unicode="`" 
d="M310 706l77 -147h-95l-97 147h115z" />
    <glyph glyph-name="hungarumlaut" unicode="&#x2dd;" 
d="M242 706h107l-82 -147h-87zM385 706h107l-81 -147h-87z" />
    <glyph glyph-name="macron" unicode="&#xaf;" 
d="M160 663h279v-85h-279v85z" />
    <glyph glyph-name="ogonek" unicode="&#x2db;" 
d="M368 2c-48 -10 -73 -27 -73 -57c0 -25 22 -40 65 -40c14 0 25 2 40 5l10 -77c-12 -5 -39 -10 -63 -10c-83 0 -139 44 -139 111c0 59 60 105 150 116z" />
    <glyph glyph-name="ring" unicode="&#x2da;" 
d="M298 753c65 0 109 -41 109 -102s-44 -103 -109 -103s-109 42 -109 103s44 102 109 102zM298 602c29 0 49 20 49 49c0 28 -20 48 -49 48s-49 -20 -49 -48c0 -29 20 -49 49 -49z" />
    <glyph glyph-name="tilde" unicode="&#x2dc;" 
d="M472 688c0 -116 -98 -142 -161 -104l-46 28c-35 23 -55 1 -55 -26h-84c0 115 101 139 161 103l46 -28c37 -23 55 -1 55 27h84z" />
    <glyph glyph-name="caron.alt" 
d="M251 680h105l-33 -195h-79z" />
    <glyph glyph-name="acute.case" 
d="M317 874h115l-97 -147h-95z" />
    <glyph glyph-name="breve.case" 
d="M452 880c0 -100 -66 -150 -152 -150c-85 0 -152 50 -152 150h77c0 -59 36 -80 75 -80c38 0 76 21 76 80h76z" />
    <glyph glyph-name="caron.case" 
d="M373 871h98l-121 -151h-100l-120 151h98l73 -85z" />
    <glyph glyph-name="circumflex.case" 
d="M373 720l-72 85l-73 -85h-98l120 151h100l121 -151h-98z" />
    <glyph glyph-name="dieresis.case" 
d="M199 873c37 0 67 -28 67 -65c0 -36 -30 -65 -67 -65s-67 29 -67 65c0 37 30 65 67 65zM402 873c37 0 67 -28 67 -65c0 -36 -30 -65 -67 -65s-67 29 -67 65c0 37 30 65 67 65z" />
    <glyph glyph-name="dotaccent.case" 
d="M300 743c-37 0 -67 29 -67 65c0 37 30 65 67 65s67 -28 67 -65c0 -36 -30 -65 -67 -65z" />
    <glyph glyph-name="grave.case" 
d="M310 874l77 -147h-95l-97 147h115z" />
    <glyph glyph-name="hungarumlaut.case" 
d="M242 874h107l-82 -147h-87zM385 874h107l-81 -147h-87z" />
    <glyph glyph-name="macron.case" 
d="M160 831h279v-85h-279v85z" />
    <glyph glyph-name="ring.case" 
d="M298 941c65 0 109 -41 109 -102s-44 -103 -109 -103s-109 42 -109 103s44 102 109 102zM298 790c29 0 49 20 49 49c0 28 -20 48 -49 48s-49 -20 -49 -48c0 -29 20 -49 49 -49z" />
    <glyph glyph-name="tilde.case" 
d="M472 856c0 -116 -98 -142 -161 -104l-46 28c-35 23 -55 1 -55 -26h-84c0 115 101 139 161 103l46 -28c37 -23 55 -1 55 27h84z" />
    </font>
</defs>
</svg>
